<?xml version="1.0" standalone="no"?>
<!DOCTYPE svg PUBLIC "-//W3C//DTD SVG 1.1//EN" "http://www.w3.org/Graphics/SVG/1.1/DTD/svg11.dtd" >
<svg xmlns="http://www.w3.org/2000/svg">
<metadata>Generated by IcoMoon</metadata>
<defs>
<font id="icomoon" horiz-adv-x="1024">
<font-face units-per-em="1024" ascent="960" descent="-64" />
<missing-glyph horiz-adv-x="1024" />
<glyph unicode="&#x20;" horiz-adv-x="512" d="" />
<glyph unicode="&#xe900;" glyph-name="iconmonstr-map-5" d="M746.325 301.568c-18.475 0-36.48 3.712-53.461 11.051l19.925 46.165c10.667-4.565 21.931-6.912 33.536-6.912 9.472 0 18.816 1.579 27.776 4.693l16.555-47.445c-14.251-5.035-29.141-7.552-44.331-7.552zM280.32 302.507c-15.915 0-31.616 2.816-46.635 8.32l17.365 47.147c9.429-3.456 19.243-5.205 29.269-5.205 11.093 0 21.931 2.133 32.171 6.315l19.072-46.507c-16.299-6.699-33.536-10.069-51.243-10.069zM650.24 335.915l-70.784 40.32 24.875 43.691 70.827-40.32-24.917-43.691zM374.827 336.768l-25.813 43.136 69.931 41.856 25.813-43.136-69.931-41.856zM541.995 396.843c-10.368 4.309-21.333 6.528-32.597 6.528-9.813 0-19.499-1.707-28.757-5.077l-17.109 47.275c14.763 5.333 30.208 8.021 45.867 8.021 17.92 0 35.413-3.499 51.925-10.411l-19.328-46.336zM854.613 403.797c-22.784 0-41.301-18.475-41.301-41.301s18.517-41.301 41.301-41.301c22.827 0 41.344 18.517 41.344 41.301 0 22.827-18.517 41.301-41.344 41.301zM169.344 403.797c-22.827 0-41.344-18.475-41.344-41.301s18.517-41.301 41.344-41.301 41.344 18.517 41.344 41.301c0 22.827-18.517 41.301-41.344 41.301zM938.667 439.296v-285.141l-170.667-105.771v186.283h-42.667v-176.683l-170.667 123.093v138.923h-85.333v-138.88l-170.667-123.093v176.64h-42.667v-186.24l-170.667 105.771v567.211l170.667-105.771v-167.637h42.667v167.552l170.667 123.136v-205.355h85.333v205.355l67.285-48.555c-14.464 29.909-24.619 64.768-24.619 107.691l0.811 14.72-86.144 62.123-236.587-170.667-275.413 170.667v-768l275.413-170.667 236.587 170.667 236.587-170.667 275.413 170.667v495.701l-1.664-2.005c-35.456-41.899-68.864-81.835-83.669-161.067zM1024 797.824c0 89.557-81.067 162.176-170.667 162.176s-170.667-72.619-170.667-162.176c0-133.163 136.021-147.243 170.667-349.824 34.645 202.581 170.667 216.661 170.667 349.824zM789.333 789.333c0 35.371 28.672 64 64 64s64-28.629 64-64-28.672-64-64-64-64 28.629-64 64zM765.952 448c-9.045 42.325-23.339 73.557-40.619 99.584v-99.584h40.619z" />
<glyph unicode="&#xe901;" glyph-name="interface" d="M918.473 920.916h-35.144c0.875 2.908 1.813 5.816 1.813 9.036 0.063 16.572-13.445 30.048-30.048 30.048s-30.048-13.476-30.048-30.048c0-3.221 0.875-6.128 1.845-9.036h-115.063c0.907 2.908 1.813 5.816 1.813 9.036-0.031 16.603-13.476 30.048-30.11 30.048-16.572 0-30.048-13.476-30.048-30.048 0-3.221 0.907-6.128 1.845-9.036h-115.063c0.907 2.908 1.813 5.816 1.813 9.036-0.031 16.572-13.476 30.048-30.079 30.048s-30.048-13.476-30.048-30.048c0-3.221 0.907-6.128 1.813-9.036h-115.063c0.907 2.908 1.813 5.816 1.813 9.036 0 16.572-13.476 30.048-30.079 30.048s-30.048-13.476-30.048-30.048c0-3.221 0.875-6.128 1.813-9.036h-115.063c0.938 2.908 1.813 5.816 1.813 9.036 0 16.603-13.445 30.048-30.048 30.048s-30.048-13.476-30.048-30.048c0-3.221 0.907-6.128 1.813-9.036h-35.144c-47.432 0-85.985-38.552-85.985-85.985v-812.947c0-47.464 38.552-85.985 85.985-85.985h715.862l183.069 183.069v715.862c0 47.432-38.521 85.985-85.985 85.985zM957.557 138.517l-9.724-9.724h-73.665c-34.425 0-62.534-28.14-62.534-62.534v-73.634l-9.693-9.724h-696.414c-21.543 0-39.084 17.541-39.084 39.084v656.611h891.115v-540.078zM536.295 177.539c-4.033 84.421-14.227 192.262-38.646 294.318h-24.857c14.508-117.033 12.319-250.481 7.942-341.219-22.231 60.94-56.25 137.607-103.744 202.017l-15.133-10.568c75.917-142.391 87.486-298.852 87.486-298.852h112.656c0 0 11.913 183.226 88.173 346.534l-15.071 13.226c-45.556-64.473-77.324-140.139-98.804-205.457zM443.744 475.077l37.27 27.202 43.493-15.227-14.352 43.837 27.984 36.676-46.119-0.125-26.264 37.927-14.133-43.899-44.212-13.226 37.396-27.015zM667.335 403.538l22.262-40.397 18.541 42.211 45.337 8.692-34.456 30.673 5.753 45.775-39.897-23.263-41.71 19.605 9.818-45.056-31.549-33.643zM314.61 361.765l13.726-44.055 26.64 37.677 46.119-0.563-27.609 36.958 14.821 43.68-43.68-14.821-36.989 27.609 0.594-46.119-37.677-26.608z" />
<glyph unicode="&#xe902;" glyph-name="knife" d="M118.855 652.37c-4.497 17.48-7.131 35.611-7.131 54.219v60.451c-69.7-87.497-111.724-198.050-111.724-318.387 0-161.732 75.569-305.947 193.073-399.831v92.924c-76.775 79.717-124.223 187.779-124.223 306.907 0 73.464 18.241 142.654 50.005 203.716zM831.935 847.743v-93.291c76.139-79.614 123.234-187.206 123.234-305.795s-47.095-226.184-123.234-305.795v-93.298c116.902 93.919 192.065 237.818 192.065 399.093 0 161.273-75.163 305.172-192.065 399.087zM561.342 8.422c-16.197-1.815-32.641-2.923-49.333-2.923-15.466 0-30.699 0.822-45.723 2.367v-42.335c0-9.195-1.708-17.915-4.142-26.354 16.408-1.579 33.047-2.521 49.865-2.521 17.545 0 34.877 0.907 51.96 2.642-2.754 9.662-4.478 19.678-4.106 29.877l1.479 39.248zM547.561 900.823c12.678 19.226 27.432 36.974 44.109 52.991-15.84 2.485-31.912 4.254-48.215 5.243 2.439-8.356 4.106-16.994 4.106-26.119v-32.115zM831.935 597.496v-297.682c21.104 45.279 33.248 95.595 33.248 148.842-0.002 53.241-12.144 103.56-33.248 148.84zM158.817 448.654c0-54.086 12.516-105.11 34.256-150.924v239.764c-6.452 5.142-12.535 10.639-18.279 16.421-10.358-33.244-15.977-68.605-15.977-105.262zM496.33 548.153v19.027c-8.992-10.706-18.951-20.76-30.042-29.666v-438.74c14.984-1.946 30.183-3.293 45.723-3.293 18.006 0 35.516 1.782 52.795 4.368l12 316.973-31.855 26.876c-30.86 26.012-48.621 64.082-48.621 104.454zM735.537 959.343c-3.026 0-6.118-0.507-9.088-1.53-96.525-33.599-161.269-124.625-161.269-226.841v-182.821c0-19.986 8.834-38.946 24.139-51.816l57.546-48.538-18.226-481.228c-0.264-7.494 2.528-14.773 7.735-20.166 5.174-5.395 12.372-8.454 19.824-8.454h79.337c15.212 0 27.552 12.355 27.552 27.582v966.233c0 8.923-4.303 17.296-11.556 22.47-4.778 3.362-10.362 5.11-15.994 5.11zM478.732 932.938c0 14.587-11.841 26.405-26.432 26.405-14.544 0-26.35-11.816-26.35-26.386v-201.193c0-19.008-15.428-34.421-34.417-34.421-19.021 0-34.417 15.413-34.417 34.421v200.147c0 15.147-12.321 27.43-27.432 27.43-15.159 0-27.423-12.285-27.423-27.43v-200.149c0-19.008-15.43-34.421-34.438-34.421-19.016 0-34.41 15.413-34.41 34.421v201.174c0 14.587-11.827 26.405-26.422 26.405s-26.415-11.816-26.415-26.405v-226.351c0-57.797 33.242-107.346 81.347-132.087v-608.97c0-15.227 12.338-27.582 27.554-27.582h80.368c15.235 0 27.609 12.355 27.609 27.582v608.991c48.048 24.741 81.277 74.286 81.277 132.068v226.351z" />
<glyph unicode="&#xe903;" glyph-name="shape" d="M693.315 350.528c-2.195 6.866 0.233 14.347 6.047 18.609l129.968 95.352c20.692 15.181 28.941 40.76 21.008 65.165-7.929 24.408-29.635 40.256-55.298 40.374l-161.194 0.747c-7.21 0.035-13.573 4.654-15.83 11.499l-50.522 153.077c-8.044 24.37-29.819 40.114-55.482 40.117v0c-25.662 0-47.442-15.747-55.485-40.114l-22.773-68.971c-3.608-10.926 2.323-22.714 13.253-26.319 10.93-3.615 22.71 2.323 26.322 13.253l22.773 68.971c3.522 10.673 13.066 11.503 15.91 11.503 2.841 0 12.385-0.83 15.906-11.503l50.522-153.081c7.884-23.877 30.070-39.995 55.211-40.114l161.194-0.747c11.239-0.052 14.979-8.874 15.854-11.576 0.879-2.702 3.039-12.034-6.022-18.681l-129.971-95.352c-20.272-14.875-28.746-40.957-21.088-64.908l49.119-153.585c3.424-10.707-3.81-16.99-6.109-18.657-2.299-1.671-10.506-6.613-19.63-0.045l-130.854 94.168c-20.414 14.687-47.845 14.687-68.259 0l-130.878-94.185c-9.124-6.564-17.334-1.625-19.63 0.042-2.299 1.671-9.533 7.95-6.113 18.654l49.105 153.609c7.658 23.947-0.82 50.029-21.088 64.904l-129.964 95.352c-9.061 6.647-6.901 15.983-6.022 18.681 0.879 2.702 4.619 11.524 15.854 11.576l161.204 0.747c11.506 0.056 20.793 9.426 20.741 20.935-0.056 11.475-9.374 20.741-20.838 20.741-0.031 0-0.066 0-0.097 0l-161.204-0.747c-25.662-0.118-47.369-15.966-55.298-40.374s0.316-49.987 21.005-65.168l129.964-95.352c5.81-4.265 8.242-11.742 6.047-18.609l-49.102-153.609c-7.814-24.443 0.552-49.984 21.314-65.064 10.419-7.568 22.373-11.353 34.334-11.353 11.874 0 23.756 3.734 34.136 11.201l130.874 94.185c5.852 4.213 13.718 4.213 19.571 0l130.854-94.168c20.831-14.99 47.706-14.934 68.471 0.153 20.765 15.083 29.128 40.624 21.311 65.071l-49.123 153.595zM511.998 960c-282.316 0-511.998-229.682-511.998-511.998s229.682-511.998 511.998-511.998c11.506 0 20.838 9.332 20.838 20.838s-9.332 20.838-20.838 20.838c-259.335-0.003-470.322 210.983-470.322 470.322s210.987 470.322 470.322 470.322 470.322-210.987 470.322-470.322c0-161.427-81.338-309.732-217.586-396.718-9.7-6.192-12.545-19.077-6.352-28.778s19.074-12.545 28.778-6.352c148.299 94.682 236.837 256.119 236.837 431.844 0.003 282.32-229.679 512.002-511.998 512.002z" />
<glyph unicode="&#xe904;" glyph-name="shopping" d="M981.967 43.453v481.383c19.823 17.765 32.346 43.591 32.346 72.253l-0.328 362.911h-1000.389l-0.502-362.911c0-27.867 11.815-53.018 30.652-70.783v-482.853h-40.026v-107.455h1016.563v107.455h-38.315zM820.128 798.508v-201.416c0-35.425-28.871-64.313-64.313-64.313-35.479 0-64.313 28.888-64.313 64.313v201.416h128.627zM497.262 798.508v-201.416c0-35.425-28.835-64.313-64.279-64.313-35.149 0-63.811 28.386-64.296 63.413 0 0.347 0 0.624 0 0.9v201.416h128.576zM335.891 798.508v-201.416c0-0.277 0-0.57 0-0.9-0.485-35.027-29.148-63.413-64.296-63.413-35.479 0-64.313 28.888-64.313 64.313v201.416h128.61zM45.874 597.089v201.419h128.61v-201.416c0-35.425-28.835-64.313-64.279-64.313s-64.331 28.886-64.331 64.311zM606.256 205.137h-475.207v238.002h475.207v-238.002zM658.67 597.089c0-35.425-28.835-64.313-64.279-64.313-35.462 0-64.331 28.888-64.331 64.313v201.419h128.61v-201.419zM890.253 56.634h-204.583v386.504h204.583v-386.504zM981.518 597.089c0-35.425-28.835-64.313-64.313-64.313-35.425 0-64.296 28.888-64.296 64.313v201.419h128.61c0 0 0-201.419 0-201.419z" />
<glyph unicode="&#xe905;" glyph-name="sign" d="M176.552 536.276c-48.728 0-88.276-39.548-88.276-88.276 0-4.943 3.884-8.828 8.828-8.828s8.828 3.884 8.828 8.828c0 38.841 31.779 70.621 70.621 70.621 4.943 0 8.828 3.884 8.828 8.828s-3.884 8.828-8.828 8.828zM847.448 289.103c-62.852 0-117.937-32.839-149.363-82.273-0.353 0-0.353 0.353-0.706 0.353l-355.222 177.611c-0.353 0-0.353 0.353-0.706 0.353 7.415 19.421 11.652 40.607 11.652 62.852s-4.237 43.432-11.652 62.852c0.353 0 0.353 0.353 0.706 0.353l355.222 177.611c0.353 0 0.353 0.353 0.706 0.353 31.426-49.434 86.51-82.273 149.363-82.273 97.457 0 176.552 79.095 176.552 176.552s-79.095 176.552-176.552 176.552-176.552-79.095-176.552-176.552c0-22.246 4.237-43.432 11.652-62.852-0.353 0-0.353 0-0.706-0.353l-355.222-177.611c-0.353 0-0.353-0.353-0.706-0.353-31.426 49.434-86.51 82.273-149.363 82.273-97.457 0-176.552-79.095-176.552-176.552s79.095-176.552 176.552-176.552c62.852 0 117.937 32.839 149.363 82.273 0.353 0 0.353-0.353 0.706-0.353l355.222-177.611c0.353 0 0.353-0.353 0.706-0.353-7.415-19.421-11.652-40.607-11.652-62.852 0-97.457 79.095-176.552 176.552-176.552s176.552 79.095 176.552 176.552-79.095 176.552-176.552 176.552zM847.448 924.69c78.036 0 141.241-63.206 141.241-141.241s-63.206-141.241-141.241-141.241c-78.036 0-141.241 63.206-141.241 141.241s63.206 141.241 141.241 141.241zM176.552 306.759c-78.036 0-141.241 63.206-141.241 141.241s63.206 141.241 141.241 141.241 141.241-63.206 141.241-141.241-63.206-141.241-141.241-141.241zM847.448-28.69c-78.036 0-141.241 63.206-141.241 141.241s63.206 141.241 141.241 141.241c78.036 0 141.241-63.206 141.241-141.241s-63.206-141.241-141.241-141.241zM847.448 200.828c-48.728 0-88.276-39.548-88.276-88.276 0-4.943 3.884-8.828 8.828-8.828s8.828 3.884 8.828 8.828c0 38.841 31.779 70.621 70.621 70.621 4.943 0 8.828 3.884 8.828 8.828s-3.884 8.828-8.828 8.828zM768 774.621c4.943 0 8.828 3.884 8.828 8.828 0 38.841 31.779 70.621 70.621 70.621 4.943 0 8.828 3.884 8.828 8.828s-3.884 8.828-8.828 8.828c-48.728 0-88.276-39.548-88.276-88.276 0-4.943 3.884-8.828 8.828-8.828z" />
<glyph unicode="&#xe906;" glyph-name="arrow" d="M592.944 806.534c10.819 15.767 17.167 34.837 17.167 55.362-0.003 54.093-44.015 98.104-98.111 98.104s-98.107-44.011-98.107-98.104c0-20.525 6.347-39.591 17.167-55.362-203.545-38.095-358.079-217.085-358.079-431.514 0-242.078 196.942-439.020 439.017-439.020 242.078 0 439.024 196.942 439.024 439.020 0 214.426-154.534 393.416-358.076 431.514zM511.997-8.835c-211.658 0-383.852 172.194-383.852 383.855s172.194 383.859 383.852 383.859c211.661 0 383.859-172.197 383.859-383.859s-172.197-383.855-383.859-383.855zM512 904.835c23.68 0 42.942-19.263 42.942-42.939 0-23.68-19.263-42.946-42.942-42.946s-42.942 19.266-42.942 42.946c0 23.676 19.263 42.939 42.942 42.939zM511.997 703.714c-181.238 0-328.687-147.453-328.687-328.694 0-181.238 147.449-328.69 328.687-328.69 181.241 0 328.694 147.453 328.694 328.69 0 181.241-147.453 328.694-328.694 328.694zM512 285.915l-154.576-97.059 154.576 429.218 154.576-429.218-154.576 97.059z" />
<glyph unicode="&#xe907;" glyph-name="days" d="M914.042 960h-804.084c-60.465 0-109.958-49.445-109.958-110.008v-804.037c0-60.416 49.493-109.958 109.958-109.958h804.084c60.416 0 109.958 49.542 109.958 109.958v804.037c0 60.563-49.542 110.008-109.958 110.008zM335.532 883.98h352.744v-91.184h-352.744v91.184zM928.867 41.374h-833.831v664.332h833.829v-664.332zM179.201 403.383h109.958v-110.008h-109.958v110.008zM179.201 229.253h109.958v-109.958h-109.958v109.958zM363.617 577.462h109.91v-109.958h-109.91v109.958zM363.617 403.383h109.91v-110.008h-109.91v110.008zM363.617 229.253h109.91v-109.958h-109.91v109.958zM547.889 577.462h110.008v-109.958h-110.008v109.958zM547.889 403.383h110.008v-110.008h-110.008v110.008zM547.889 229.253h110.008v-109.958h-110.008v109.958zM732.21 577.462h110.008v-109.958h-110.008v109.958zM732.21 403.383h110.008v-110.008h-110.008v110.008z" />
<glyph unicode="&#xe908;" glyph-name="dialog" d="M185.673 801.497h272.82v-57.697h-272.82v57.697zM826.253 736.574c9.477 0 18.751 3.846 25.488 10.573 6.726 6.731 10.573 16.011 10.573 25.488 0 9.515-3.846 18.8-10.573 25.531-6.731 6.683-16.011 10.53-25.488 10.53-9.52 0-18.795-3.851-25.531-10.53-6.683-6.726-10.53-16.011-10.53-25.531 0-9.477 3.851-18.751 10.53-25.488 6.736-6.726 16.011-10.573 25.531-10.573zM696.435 736.574c9.477 0 18.751 3.846 25.488 10.573 6.726 6.731 10.573 16.011 10.573 25.488 0 9.515-3.846 18.8-10.573 25.531-6.731 6.683-16.011 10.53-25.488 10.53-9.515 0-18.795-3.851-25.531-10.53-6.683-6.726-10.53-16.011-10.53-25.531 0-9.477 3.851-18.751 10.53-25.488 6.736-6.726 16.011-10.573 25.531-10.573zM566.569 736.574c9.52 0 18.8 3.846 25.536 10.573 6.726 6.731 10.573 16.011 10.573 25.488 0 9.472-3.846 18.8-10.573 25.531-6.731 6.683-16.011 10.53-25.536 10.53-9.472 0-18.747-3.851-25.483-10.53-6.683-6.726-10.53-16.011-10.53-25.531 0-9.477 3.851-18.751 10.53-25.488 6.736-6.726 16.011-10.573 25.483-10.573zM0 920.665v-761.45h237.913v-183.875l345.042 183.875h441.045v761.45h-1024zM951.879 848.544v-151.791h-879.758v151.791h879.758zM564.935 231.336l-254.9-135.843v135.843h-237.913v393.296h879.758v-393.296h-386.944zM205.064 525.379h613.866v-57.697h-613.866v57.697zM205.064 397.907h613.866v-57.697h-613.866v57.697z" />
<glyph unicode="&#xe909;" glyph-name="interfacea" d="M0 846.222h113.778v113.778c-62.578 0-113.778-51.2-113.778-113.778zM0 391.111h113.778v113.778h-113.778v-113.778zM227.556-64h113.778v113.778h-113.778v-113.778zM0 618.667h113.778v113.778h-113.778v-113.778zM568.889 960h-113.778v-113.778h113.778v113.778zM910.222 960v-113.778h113.778c0 62.578-51.2 113.778-113.778 113.778zM113.778-64v113.778h-113.778c0-62.578 51.2-113.778 113.778-113.778zM0 163.556h113.778v113.778h-113.778v-113.778zM341.333 960h-113.778v-113.778h113.778v113.778zM455.111-64h113.778v113.778h-113.778v-113.778zM910.222 391.111h113.778v113.778h-113.778v-113.778zM910.222-64c62.578 0 113.778 51.2 113.778 113.778h-113.778v-113.778zM910.222 618.667h113.778v113.778h-113.778v-113.778zM910.222 163.556h113.778v113.778h-113.778v-113.778zM682.667-64h113.778v113.778h-113.778v-113.778zM682.667 846.222h113.778v113.778h-113.778v-113.778zM227.556 163.556h568.889v568.889h-568.889v-568.889zM341.333 618.667h341.333v-341.333h-341.333v341.333z" />
<glyph unicode="&#xe90a;" glyph-name="read" d="M768 814.592c-113.518 0-256-67.365-256-148.114 0 80.75-142.482 148.114-256 148.114s-256-67.365-256-148.114v-585.143c0 77.458 143.726 146.139 256 146.139s256-77.239 256-146.066c0 77.458 143.726 146.139 256 146.139s256-77.312 256-146.139v585.143c0 80.677-142.482 148.041-256 148.041zM438.857 227.694c0 48.201-102.619 72.777-182.857 72.777s-182.857-18.578-182.857-72.777v409.6c0 56.539 101.815 103.717 182.857 103.717s182.857-47.25 182.857-103.863v-409.454zM950.857 227.694c0 48.201-102.619 72.777-182.857 72.777s-182.857-18.578-182.857-72.777v409.6c0 56.539 101.815 103.717 182.857 103.717s182.857-47.25 182.857-103.863v-409.454z" />
<glyph unicode="&#xe90b;" glyph-name="technology" d="M971.484 875.979h-918.968c-29.002 0-52.516-23.508-52.516-52.513v-750.926c0-29.005 23.514-52.519 52.516-52.519h918.968c29.002 0 52.516 23.511 52.516 52.519v750.926c0 29.005-23.514 52.513-52.516 52.513zM449.33 814.075h125.336v-97.823h-125.336v97.823zM299.538 81.928h-125.336v97.823h125.336v-97.823zM299.538 716.252h-125.336v97.823h125.336v-97.823zM574.667 81.928h-125.336v97.823h125.336v-97.823zM621.334 436.263l-146.359-107.704c-2.55-1.88-5.579-2.837-8.639-2.837-2.241 0-4.494 0.52-6.576 1.565-4.906 2.479-7.997 7.517-7.997 13.011v215.41c0 5.493 3.091 10.525 7.997 13.011 4.913 2.476 10.791 1.987 15.218-1.272l146.359-107.704c3.723-2.745 5.927-7.104 5.927-11.739 0-4.637-2.207-8.997-5.931-11.742zM849.795 81.928h-125.336v97.823h125.336v-97.823zM849.795 716.252h-125.336v97.823h125.336v-97.823z" />
<glyph unicode="&#xe90c;" glyph-name="construction" d="M267.375 229.712h489.249c12.567 0 22.752 10.185 22.752 22.752s-10.185 22.752-22.752 22.752h-33.757v421.352c0 12.567-10.185 22.752-22.752 22.752h-9.753l0.005 217.927c0 12.567-10.185 22.752-22.752 22.752-12.564 0-22.752-10.185-22.752-22.752l-0.005-240.68c0-6.034 2.397-11.821 6.664-16.088s10.054-6.664 16.088-6.664h9.753v-398.6h-76.419v527.617c0 8.080-4.288 15.555-11.262 19.638-6.975 4.080-15.59 4.156-22.636 0.197l-140.889-79.177c-7.169-4.030-11.606-11.611-11.606-19.835v-28.698c0-12.567 10.185-22.752 22.752-22.752s22.752 10.185 22.752 22.752v15.385l95.385 53.604v-488.731h-72.746v335.864c0 12.567-10.185 22.752-22.752 22.752h-124.909c-12.567 0-22.752-10.185-22.752-22.752v-335.864h-44.905c-12.567 0-22.752-10.185-22.752-22.752s10.185-22.752 22.752-22.752zM357.785 588.329h79.405v-313.112h-79.405v313.112zM933.292 178.641c0-133.793-108.844-242.639-242.634-242.639h-357.315c-133.79 0-242.636 108.849-242.636 242.639 0 85.068 45.76 165.072 119.423 208.786 10.802 6.419 24.764 2.857 31.178-7.953 6.414-10.805 2.852-24.764-7.953-31.175-59.919-35.559-97.141-100.567-97.141-169.655 0-108.702 88.432-197.135 197.132-197.135h357.317c108.697 0 197.129 88.432 197.129 197.135 0 69.086-37.222 134.093-97.141 169.647-10.807 6.414-14.369 20.373-7.956 31.178s20.371 14.367 31.178 7.956c73.659-43.714 119.418-123.716 119.418-208.784zM773.845 181.222c12.248-2.811 19.895-15.019 17.082-27.267-11.449-49.847-56.832-86.023-107.913-86.023h-342.033c-51.073 0-96.454 36.178-107.906 86.021-2.814 12.248 4.834 24.456 17.079 27.27 12.251 2.821 24.453-4.834 27.27-17.079 6.75-29.383 33.481-50.709 63.557-50.709h342.033c30.083 0 56.815 21.326 63.564 50.707 2.814 12.248 15.024 19.908 27.267 17.082z" />
<glyph unicode="&#xe90d;" glyph-name="interface2" d="M622.385 205.796c-12.263-18.409-24.541-33.738-36.804-49.054 196.202-9.184 318.85-55.186 318.85-85.844 0-36.79-153.28-88.91-395.497-88.91s-395.497 52.147-395.497 88.91c0 30.645 122.635 76.66 318.85 85.844-12.263 15.316-21.434 30.631-36.79 49.054-180.886-12.277-343.377-58.251-343.377-131.846 0-91.99 229.94-137.964 459.88-137.964 229.913 0 459.867 45.974 459.867 137.964 0.014 73.608-162.464 119.569-349.482 131.846zM487.473 95.411c-3.066 3.093-15.329 18.409-33.725 42.936-91.976-3.080-220.743-15.329-220.743-64.383 0-58.251 196.216-64.37 278.994-64.37 82.765 0 278.98 6.118 278.98 64.37 0 49.054-128.739 61.304-220.729 64.383-18.409-24.527-30.659-39.843-33.738-42.936l-6.132-6.118c79.726 0 137.978-9.211 168.623-15.329-33.738-6.118-98.108-15.316-187.032-15.316-88.91 0-153.293 6.118-187.018 15.316 33.725 6.118 88.91 15.329 168.623 15.329l-6.104 6.118zM815.521 656.479c0 168.623-134.885 303.521-303.521 303.521-168.609 0-303.521-134.885-303.521-303.521s303.521-542.645 303.521-542.645 303.521 374.009 303.521 542.645zM306.587 690.19l141.030 21.475 64.383 128.753 64.383-128.766 141.057-21.475-104.226-101.16 24.513-141.044-125.701 67.463-125.701-67.449 24.527 141.044-104.267 101.16z" />
<glyph unicode="&#xe90e;" glyph-name="people" d="M481.206 337.702v-34.085h60.955v34.085c-10.052-1.92-20.212-2.993-30.463-2.993-10.249-0.002-20.438 1.072-30.492 2.993zM797.339 386.488l-125.158 37.323c-8.070-10.103-16.536-19.332-25.235-27.817l32.577-9.724c-21.764-86.625-80.769-323.228-97.373-407.734-13.332-3.227-26.893-5.805-40.817-7.176l35.227 83.182-33.867 226.5h-61.388l-33.87-226.5 35.223-83.182c-14.191 1.387-27.948 4.050-41.475 7.356-16.636 84.576-75.511 320.667-97.309 407.374l32.742 9.771c-8.732 8.485-17.162 17.697-25.268 27.817l-124.693-37.192c-27.98-8.335-47.132-34.035-47.132-63.207v-54.807c0-183.617 148.838-332.472 332.474-332.472 183.634 0 332.472 148.855 332.472 332.472v54.807c0.002 29.172-19.148 54.872-47.132 63.209zM726.573 693.59c6.15 38.738 3.407 80.314-1.967 112.805-11.477 69.44-39.030 118.308-39.030 118.308l-12.867-53.963-1.256-5.308c-0.099 2.168-0.429 4.566-0.662 6.897-3.075 29.437-16.274 69.308-16.274 69.308-29.634-14.106-78.254-12.7-78.254-12.7 13.461 9.889 48.621 19.747 48.621 19.747-87.581 27.601-143.578-1.273-170.833-23.003-5.89-4.714-10.452-9.030-13.694-12.419l9.989 11.526 20.741 23.898c-41.811-4.101-72.273-32.347-90.796-55.418-13.362-16.638-20.702-30.661-20.702-30.661l3.572 18.374 7.704 39.491c-28.741-22.986-46.072-56.41-56.691-90.493-16.001-51.457-17.668-114.089-17.118-136.288-16.659-6.886-29.2-22.432-34.677-43.112-5.192-19.732-3.836-42.735 3.836-64.747 12.106-34.76 37.869-60.312 65.92-66.035 34.828-74.716 98.895-151.217 179.561-151.217 80.606 0 144.674 76.385 179.502 151.052 27.616 5.408 53.813 31.11 66.049 66.2 16.405 47.274 2.916 93.797-30.674 107.759zM725.269 596.96c-10.088-28.908-30.594-44.501-45.146-44.501-8.106-0.992-13.133-3.906-15.842-10.17-29.473-67.606-85.037-139.844-152.579-139.844-67.536 0-123.104 72.235-152.577 139.844-2.68 6.184-9.487 10.17-16.238 10.17-14.155 0-34.629 15.593-44.685 44.501-5.393 15.513-6.518 31.901-3.075 44.966 1.688 6.3 5.922 17.38 15.777 20.804 1.060 0.364 3.143 0.577 4.164 0.677 8.369 0.81 14.887 7.641 15.284 16.041 0.366 7.823 1.301 15.373 3.177 22.773 25.243 99.629 112.058 106.75 112.058 106.75-15.614-36.697-40.847-52.21-40.847-52.21 83.248 33.87 109.18 70.567 109.18 70.567 55.403-76.916 131.739-110.288 175.828-123.965 1.288-7.905 2.912-15.694 3.308-23.915 0.398-8.4 6.914-15.231 15.284-16.041 1.019-0.099 3.107-0.313 4.196-0.677 14.984-5.224 23.915-33.538 12.734-65.77z" />
<glyph unicode="&#xe90f;" glyph-name="photo" d="M1018.966 609.658l-376.535 179.887c-4.398 2.052-9.627 0.195-11.729-4.105l-81.953-171.53h44.617l60.207 126.033 326.396-155.941-102.038-213.655-57.519 27.415v-112.936l35.332-16.909c4.447-2.101 9.627-0.195 11.777 4.105l155.648 325.858c2.101 4.398 0.195 9.676-4.203 11.777zM5.034 611.76l376.535 179.838c4.398 2.101 9.627 0.244 11.729-4.056l82.002-171.53h-44.666l-60.207 126.033-326.396-155.941 102.087-213.655 57.47 27.415v-112.936l-35.332-16.909c-4.398-2.199-9.627-0.195-11.729 4.105l-155.648 325.907c-2.101 4.349-0.244 9.578 4.154 11.729zM784.835 584.491h-529.935c-6.157 0-11.191-4.985-11.191-11.142v-458.635c0-6.109 5.034-11.191 11.191-11.191h529.984c6.206 0 11.191 5.082 11.191 11.191v458.635c0 6.157-5.034 11.142-11.24 11.142zM754.243 232.977h-33.622c-19.548 50.091-43.64 120.364-80.194 110.981-42.809-10.898-64.263-110.981-64.263-110.981s-21.796 112.936-82.246 173.436c-60.5 60.451-119.094-173.436-119.094-173.436h-79.998v300.74h459.417v-300.74zM406.443 469.258c0-20.701-16.781-37.482-37.482-37.482s-37.482 16.781-37.482 37.482c0 20.701 16.781 37.482 37.482 37.482s37.482-16.781 37.482-37.482zM620.489 442.771c8.405 0 16.224 0.929 23.262 2.346 8.161-3.47 18.179-5.62 28.93-5.62 27.562 0 49.993 13.488 49.993 30.103 0 16.664-22.431 30.201-49.993 30.201-10.36 0-19.987-1.955-27.953-5.18-3.274 3.176-7.672 5.18-12.559 5.18h-7.281c-9.236 0-16.567-7.037-17.642-16.029-22.382-2.346-38.997-10.409-38.997-20.183-0.049-11.484 23.359-20.818 52.241-20.818z" />
<glyph unicode="&#xe910;" glyph-name="sign2" d="M308.991 249.469c2.985-50.766 26.869-95.534 59.708-128.387 5.971 5.984 11.942 8.983 20.898 14.94-14.927 32.826-20.898 71.637-23.883 113.446h-56.723zM392.583 249.469c2.985-35.825 8.956-71.637 20.898-101.478 14.927 5.944 29.854 11.928 44.781 14.9-2.985 32.866-5.971 65.693-5.971 86.577 2.985 0-59.708 0-59.708 0zM308.991 285.281h56.723c2.985 41.809 8.956 80.62 23.883 113.446-5.971 2.999-14.927 8.956-20.898 14.94-32.84-32.853-53.738-77.621-59.708-128.387zM389.598 103.17c8.956-5.958 17.913-11.942 26.869-17.913-5.971 8.956-11.942 14.914-14.927 23.87-2.985 0-5.971-2.959-11.942-5.958zM565.738 162.879c14.914-3.039 29.828-8.956 44.768-14.94 11.942 29.854 17.913 62.707 20.871 101.518h-62.681c0.027-20.898 0.027-53.751-2.959-86.577zM610.546 386.772c-14.94-5.958-29.854-11.942-44.768-14.914 2.985-32.853 5.958-65.679 5.958-86.577h59.695c-3.012 35.838-8.97 71.663-20.885 101.491zM598.577 410.669c-14.927 26.869-32.84 44.768-53.738 56.71 5.971-17.913 11.942-44.755 14.927-68.665 14.927 0.013 26.882 5.998 38.81 11.955zM416.466 446.481c-8.956-5.958-17.913-11.942-26.869-17.899 2.985-2.999 5.971-5.958 11.942-8.956 5.971 11.955 11.942 20.898 14.927 26.855zM425.423 124.068c14.927-26.869 32.84-44.768 53.738-56.723-5.971 17.913-11.942 44.728-14.927 68.625-14.927-2.945-26.869-5.904-38.81-11.902zM535.883 392.756c-5.971 41.783-14.927 68.638-20.898 77.621h-5.971c-5.971-11.942-14.927-38.81-20.898-77.621 8.956 0 14.927 0 23.883 0s14.927 0 23.883 0zM413.481 386.772c-11.942-29.828-20.898-62.681-20.898-101.491h62.694c0 20.898 2.985 50.766 5.971 86.577-17.913 2.999-32.84 5.958-47.767 14.914zM425.423 410.669c11.942-5.958 23.883-8.956 35.825-11.942 2.985 26.909 8.956 50.752 14.927 68.665-17.913-11.928-35.825-32.853-50.752-56.723zM634.416 136.023c5.958-2.999 14.94-8.956 20.885-14.94 32.84 32.853 56.723 77.621 59.695 128.387h-56.723c-2.972-41.809-11.928-80.62-23.857-113.446zM607.534 88.257c8.956 5.958 17.926 11.942 26.882 17.913-2.999 3.012-5.958 5.958-11.942 8.956-5.984-11.955-11.928-20.911-14.94-26.869zM634.416 398.727c14.94-32.826 20.885-71.637 23.897-113.446h56.723c-3.012 50.766-26.895 95.534-59.695 128.387-8.996-5.958-14.967-11.955-20.925-14.94zM694.111 539.055l205.994 420.945h-776.21l205.994-420.931c-89.563-59.695-146.286-158.254-146.286-274.659 0-182.111 146.286-328.41 328.397-328.41s328.423 146.299 328.423 328.41c0 116.405-59.735 217.909-146.312 274.646zM640.373 828.641l20.898 41.783 20.871-41.783 47.767-5.984-35.825-32.826 8.956-47.767-41.783 20.871-41.809-23.883 8.956 47.767-35.825 32.84 47.793 8.983zM607.534 700.242l47.767-5.971-32.84-35.825 8.956-47.767-41.796 20.898-41.823-20.898 8.956 47.767-35.825 32.84 47.767 5.971 20.898 41.796 17.939-38.81zM491.102 828.641l20.898 41.783 20.885-41.809 47.767-5.958-35.812-32.853 8.983-47.767-41.823 20.898-41.796-23.883 8.956 47.767-35.825 32.84 47.767 8.983zM458.262 700.242l47.767-5.971-35.825-35.825 8.956-47.767-41.796 20.898-41.796-20.898 8.956 47.767-35.825 32.84 47.767 5.971 20.898 41.796 20.898-38.81zM317.948 739.052l8.956 47.767-35.825 32.84 47.767 5.971 20.898 41.796 20.898-41.796 47.767-5.971-35.825-32.84 8.956-47.767-38.81 23.883-44.781-23.883zM512 28.535c-131.359 0-238.834 107.449-238.834 238.834 0 131.332 107.475 238.82 238.834 238.82 131.332 0 238.834-107.475 238.834-238.82 0-131.372-107.489-238.834-238.834-238.834zM622.461 422.624c2.999 3.012 8.956 5.958 11.942 8.956-8.956 5.958-17.926 11.942-26.882 17.899 3.025-8.956 8.97-17.899 14.94-26.855zM544.84 67.345c20.898 8.956 38.81 29.854 53.738 56.723-11.942 5.984-23.883 8.956-35.825 11.942-5.998-23.883-8.93-50.752-17.913-68.665zM488.117 141.981c5.971-41.809 14.927-68.665 20.898-77.621h5.971c5.971 11.942 14.927 38.81 20.898 77.621-8.956 0-14.927 0-23.883 0s-14.927 0-23.883 0zM485.131 168.85c8.956 0 17.913 3.012 26.869 3.012s17.913 0 26.882-3.012c3.012 23.897 3.012 50.779 5.958 80.62h-62.694c0-29.868 0-56.723 2.985-80.62zM512 362.902c-8.956 0-17.913 0-26.869 2.999-2.985-23.897-2.985-50.766-2.985-80.62h59.695c0 29.854-2.999 56.723-5.958 80.62-5.971 0-14.927-2.999-23.883-2.999z" />
<glyph unicode="&#xe911;" glyph-name="travel" d="M718.125-35.030c-28.97 35.39-102.934 130.106-124.97 205.56-27.737 94.562-28.918 168.218-28.918 168.218h12.584v40.629h-16.334c0 0-16.334 151.782-20.186 203.403-3.852 51.673-7.499 88.090-7.499 88.090l6.215 9.811v28.507l-3.647 11.146v28.559l6.061 7.756v30.665l-15.563 13.714-10.53 158.973h-6.677l-10.53-158.973-15.717-13.714v-30.665l6.266-7.756v-28.559l-3.647-11.146v-28.507l6.318-9.811c0 0-3.75-36.417-7.602-88.090-3.698-51.673-20.083-203.403-20.083-203.403h-16.437v-40.629h12.482c0 0-1.079-73.759-28.815-168.218-22.292-75.454-95.897-170.119-125.072-205.56h-66.26v-28.97h544.822v28.97c0.051 0-66.26 0-66.26 0zM528.437 283.172h14.177c0.565-4.006 1.233-9.708 2.363-16.539h-16.539v16.539zM528.437 251.583h18.594c1.49-9.657 3.082-20.34 4.88-31.178h-23.474v31.178zM528.437 205.201h25.939c1.746-10.838 3.698-21.573 5.496-31.024h-31.435v31.024zM528.437 159.075h34.671c0.154-0.411 0.308-0.925 0.308-1.181 2.465-10.324 5.188-20.546 7.807-30.1h-42.787v31.281zM528.437 112.745h47.409c6.164-19.159 11.146-32.411 11.146-32.411s-18.851 9.143-32.205 11.557c-13.098 2.517-26.35 3.39-26.35 3.39v17.464zM481.438 283.172h14.074v-16.539h-16.437c0.873 6.934 1.849 12.533 2.363 16.539zM476.918 251.583h18.594v-31.178h-23.525c1.798 10.787 3.493 21.522 4.931 31.178zM469.573 205.201h25.99v-31.024h-31.589c1.952 9.502 3.852 20.238 5.599 31.024zM460.687 157.894c0.051 0.308 0.051 0.822 0.154 1.181h34.722v-31.281h-42.941c2.876 9.502 5.547 19.724 8.064 30.1zM448.103 112.745h47.512v-17.464c0 0-13.355-0.925-26.658-3.39-13.047-2.414-31.846-11.557-31.846-11.557s4.828 13.252 10.992 32.411zM498.234 70.266v-105.348h-153.99c24.244 31.949 82.388 97.233 153.99 105.348zM525.612-35.030v105.348c71.602-8.116 129.746-73.451 154.196-105.348h-154.196z" />
<glyph unicode="&#xe912;" glyph-name="building" d="M752.821 312.081h-22.207v-132.717c5.506 2.244 11.215 3.808 16.99 5.066v78.751c30.737 7.784 55.441 30.549 65.89 60.133-11.995 5.231-23.090 12.113-32.996 20.405-2.514-15.021-10.025-31.638-27.678-31.638zM696.631 264.32v-74.318c6.048-3.738 11.741-8.070 16.99-12.948v152.019h-12.624c-1.649 0-2.973 0.254-4.367 0.458-7.034 1-11.214 4.145-13.422 6.967-4.502 5.76-4.026 12.607-3.568 15.462v28.086c0 4.689 3.806 8.495 8.495 8.495s8.495-3.808 8.495-8.495l-0.256-31.365c-0.119-0.663-0.034-2.617 0.238-2.617h0.020c0.203 0 1.411 0 4.383 0h12.607v33.982c0 1.173 0.238 2.294 0.663 3.314 1.292 3.042 4.298 5.183 7.832 5.183 4.689 0 8.495-3.808 8.495-8.495v-50.974h22.207c9.654 0 11.777 21.374 11.777 26.676v3.754c-6.816 7.918-12.726 16.601-17.585 25.928-1.732 3.33-3.399 6.709-4.86 10.194-6.777 16.159-10.535 33.879-10.535 52.45 0 0.357 0.052 0.714 0.052 1.070-2.429 0.187-4.86 0.373-7.322 0.373-52.282 0-94.673-42.39-94.673-94.671-0.018-42.648 28.188-78.685 66.96-90.528zM276.769 145.825c19.778 23.653 49.273 36.836 81.114 36.836 18.062 0 35.036-4.757 49.902-13.049v652.199h-186.9v-638.335c22.122-6.302 41.711-19.641 55.883-37.651zM271.857 278.099h16.99v-33.982h-16.99v33.982zM271.857 329.073h16.99v-33.982h-16.99v33.982zM271.857 380.045h16.99v-33.982h-16.99v33.982zM271.857 431.019h16.99v-33.982h-16.99v33.982zM271.857 481.991h16.99v-33.982h-16.99v33.982zM271.857 532.965h16.99v-33.982h-16.99v33.982zM271.857 583.937h16.99v-33.982h-16.99v33.982zM271.857 634.909h16.99v-33.982h-16.99v33.982zM271.857 685.883h16.99v-33.982h-16.99v33.982zM356.811 651.901h-16.99v33.982h16.99v-33.982zM356.811 600.929h-16.99v33.982h16.99v-33.982zM356.811 549.955h-16.99v33.982h16.99v-33.982zM356.811 498.981h-16.99v33.982h16.99v-33.982zM356.811 448.009h-16.99v33.982h16.99v-33.982zM356.811 397.037h-16.99v33.982h16.99v-33.982zM356.811 346.063h-16.99v33.982h16.99v-33.982zM356.811 295.091h-16.99v33.982h16.99v-33.982zM356.811 244.117h-16.99v33.982h16.99v-33.982zM305.839 278.099h16.99v-33.982h-16.99v33.982zM305.839 329.073h16.99v-33.982h-16.99v33.982zM305.839 380.045h16.99v-33.982h-16.99v33.982zM305.839 431.019h16.99v-33.982h-16.99v33.982zM305.839 481.991h16.99v-33.982h-16.99v33.982zM305.839 532.965h16.99v-33.982h-16.99v33.982zM305.839 583.937h16.99v-33.982h-16.99v33.982zM305.839 634.909h16.99v-33.982h-16.99v33.982zM322.829 651.901h-16.99v33.982h16.99v-33.982zM356.811 753.846v-50.974h-16.99v50.974h16.99zM322.829 753.846v-50.974h-16.99v50.974h16.99zM271.857 753.846h16.99v-50.974h-16.99v50.974zM92.024 98.895c0 26.61 10.654 47.338 26.914 62.084 5.147 4.673 10.856 8.733 16.99 12.166 1.885 1.055 3.788 2.056 5.743 3.008h-5.743v33.982h33.982v-24.79c7.527 1.427 15.19 2.226 22.854 2.226 3.754 0 7.459-0.27 11.128-0.681v261.118h-203.892v-373.801h94.096l-0.171 1.206c-1.306 7.154-1.901 17.5-1.901 23.481zM33.984 261.109h33.982v-33.982h-33.982v33.982zM33.984 312.081h33.982v-33.982h-33.982v33.982zM33.984 363.055h33.982v-33.982h-33.982v33.982zM118.938 329.073h-33.982v33.982h33.982v-33.982zM118.938 278.099h-33.982v33.982h33.982v-33.982zM84.958 261.109h33.982v-33.982h-33.982v33.982zM169.912 227.127h-33.982v33.982h33.982v-33.982zM169.912 278.099h-33.982v33.982h33.982v-33.982zM169.912 329.073h-33.982v33.982h33.982v-33.982zM169.912 380.045h-33.982v33.982h33.982v-33.982zM118.938 380.045h-33.982v33.982h33.982v-33.982zM33.984 414.027h33.982v-33.982h-33.982v33.982zM33.984 210.135h33.982v-33.982h-33.982v33.982zM84.958 210.135h33.982v-33.982h-33.982v33.982zM463.277 79.168l0.171-4.961h72.415l-0.171 1.206c-1.308 7.154-1.903 17.502-1.903 23.483 0 42.511 24.943 79.209 60.894 96.525v354.533h-169.91v-392.135c22.449-19.048 37.196-47.269 38.504-78.652zM560.703 295.091h-16.99v16.99h16.99v-16.99zM492.739 312.081h33.982v-16.99h-33.982v16.99zM492.739 363.055h33.982v-33.982h-33.982v33.982zM492.739 414.027h33.982v-33.982h-33.982v33.982zM492.739 465.001h33.982v-33.982h-33.982v33.982zM560.703 431.019h-16.99v33.982h16.99v-33.982zM560.703 380.045h-16.99v33.982h16.99v-33.982zM560.703 329.073h-16.99v33.982h16.99v-33.982zM560.703 481.991h-16.99v33.982h16.99v-33.982zM526.721 481.991h-33.982v33.982h33.982v-33.982zM458.757 515.973h16.99v-33.982h-16.99v33.982zM458.757 465.001h16.99v-33.982h-16.99v33.982zM458.757 414.027h16.99v-33.982h-16.99v33.982zM458.757 363.055h16.99v-33.982h-16.99v33.982zM458.757 312.081h16.99v-16.99h-16.99v16.99zM458.757 278.099h101.942v-16.99h-101.946v16.99h0.004zM458.757 244.117h101.946v-16.99h-101.946v16.99zM458.757 210.135h101.946v-16.99h-101.946v16.99zM764.595 388.625c4.758-8.241 10.469-15.853 16.99-22.683 10.263-10.757 22.496-19.54 36.139-25.862 9.94-4.604 20.627-7.85 31.825-9.566v-179.101c1.667-1.835 3.364-3.619 4.911-5.572 3.671 4.401 7.783 8.308 12.081 11.96v256.221h-23.362c-20.252 0-27.61 17.603-27.61 29.428v38.536c0 4.689 3.806 8.495 8.495 8.495s8.493-3.806 8.493-8.495v-38.536c0.052-2.871 0.952-12.438 10.622-12.438h23.362v50.974c0 1.173 0.24 2.294 0.663 3.314 1.294 3.042 4.3 5.183 7.832 5.183 4.691 0 8.495-3.806 8.495-8.495v-101.946h19.996c3.772 0 6.525 1.070 8.632 3.364 5.437 5.931 5.727 18.401 5.384 22.312l-0.034 42.29c0 4.689 3.806 8.495 8.495 8.495s8.495-3.808 8.495-8.495v-41.56c0.171-1.581 1.544-22.139-9.838-34.543-5.336-5.794-12.642-8.852-21.137-8.852h-19.998v-193.561c5.419 2.973 11.079 5.538 16.99 7.511v156.674c49.785 14.272 86.265 60.027 86.265 114.4 0 65.771-53.317 119.091-119.091 119.091s-119.089-53.317-119.089-119.091c0-0.629 0.085-1.224 0.085-1.851 0.329-20.965 6.087-40.59 15.908-57.598zM424.775 74.207h21.528c-0.865 22.241-8.989 41.798-21.528 57.090-5.028 6.134-10.602 11.69-16.99 16.226-14.204 10.094-31.315 16.039-49.902 16.039-36.581 0-67.964-17.909-81.557-49.511-9.888 24.519-30.194 43.65-55.441 51.976-5.437 1.803-11.146 2.973-16.99 3.705-3.653 0.46-7.34 0.851-11.128 0.851-19.439 0-40.626-6.711-56.836-19.76-3.244-2.617-6.253-5.522-9.039-8.648-10.823-12.113-17.875-27.967-17.875-47.523 0-5.538 0.681-3.447 1.631-20.441l314.126-0.004zM935.576 163.547c-12.488 0-24.28-2.244-35.053-6.235-6.047-2.244-11.724-5.098-16.99-8.513-6.338-4.129-12.081-9.005-16.99-14.749-5.030-5.88-9.311-12.523-12.525-19.998-1.274 3.145-2.87 6.118-4.469 9.073-15.242 28.188-44.805 47.456-79.092 47.456-7.969 0-15.547-1.377-22.854-3.381-5.929-1.613-11.605-3.738-16.99-6.491-5.643-2.87-11.079-6.1-16.007-10.025-0.306 0.425-0.681 0.816-0.986 1.24-4.842 6.61-10.585 12.486-16.99 17.569-15.325 12.166-34.579 19.574-55.663 19.574-16.94 0-32.743-5.251-46.283-14.033-26.269-17.026-43.907-47.541-43.907-80.402 0-5.538 0.682-3.449 1.631-20.441h471.586c-1.967 50.992-40.638 89.357-88.417 89.357z" />
<glyph unicode="&#xe913;" glyph-name="city" d="M127.54 719.508l-56.467-761.635h-71.073l52.861 643.21zM934.715 595.573l41.916-637.7h47.351l-44.624 553.869zM344.347 792.375l-138.467-834.502h296.996v980.273l-158.528-145.771zM473.736 114.59l-223.643-83.794 12.758 87.455 210.904 85.624v-89.285zM473.736 245.753l-207.71-85.606 12.739 87.455 194.971 87.455v-89.304zM473.736 376.917l-188.583-81.963 12.758 87.474 175.825 83.775v-89.285zM473.736 506.306l-165.795-85.643 12.739 87.474 153.037 87.474 0.019-89.304zM473.736 639.338l-146.686-87.492 12.758 87.455 133.928 89.304v-89.267zM473.736 768.69l-127.559-85.606 18.212 85.606 109.347 89.285v-89.285zM646.815 828.836l-127.559 109.309v-980.273h287.88l-160.322 870.963zM537.506 857.975l94.721-67.412 17.334-78.358-112.055 65.619v80.151zM537.506 728.605l112.055-54.206 13.636-75.146-125.691 49.182v80.17zM537.506 599.253l125.691-47.426 17.259-81.963-142.95 49.2v80.189zM537.506 469.901l142.95-49.238 18.305-96.066-161.256 56v89.304zM537.506 340.531l165.795-59.25 17.913-89.528-183.689 61.771-0.019 87.007zM537.506 211.16l183.708-66.516 20.622-83.532-204.311 61.211v88.837zM142.11 712.205l-58.297-754.332h109.309l15.093 92.947-100.866 26.431 3.642 42.831 103.351-31.624 4.8 29.606-106.227 30.839 3.642 42.831 108.674-36.48 4.838 30.017-112.354 32.912 3.642 42.831 114.726-38.927 4.95 30.372-117.136 36.106 3.642 42.85 119.452-42.495 5.025 30.783-124.458 39.431 3.661 42.831 123.842-45.11v-18.305l23.722 145.883v169.456l-136.674 58.316zM257.77 388.797l-122.030 43.746 3.642 42.85 118.387-48.323v-38.273zM260.534 458.937l-118.686 42.588 3.661 42.831 115.025-47.164v-38.255zM263.28 529.095l-114.782 40.982 3.642 42.831 111.159-45.558-0.019-38.255zM266.026 599.253l-114.801 40.963 3.642 42.85 111.177-45.558v-38.255zM925.599 604.726l-136.655-54.655-23.685-295.165 12.702-62.761 152.234 37.619 2.708-49.649-146.163-31.306 6.201-30.596 141.773 28.243 4.408-53.497-137.197-19.239 23.461-115.81h134.844l-34.631 646.815zM801.104 520.372l112.018 41.15 1.961-46.996-117.042-35.322 3.063 41.168zM795.014 454.696l123.804 38.329 2.428-42.177-129.277-37.283 3.045 41.131zM788.925 389.040l132.359 41.15 2.017-44.587-137.421-37.713 3.045 41.15zM782.854 323.365l142.465 41.15 1.644-45.371-147.153-36.947 3.045 41.168zM773.739 216.558l3.007 41.112 150.216 41.15 3.231-43.317-156.455-38.946z" />
<glyph unicode="&#xe914;" glyph-name="clock" d="M535.871 343.566l4.438 7.665-28.309-28.295c5.935 0 11.88 0.058 17.756 0.233 0.549 7.102 2.46 14.028 6.115 20.396zM519.369 464.177l35.975-86.964 48.336 83.761c1.152 1.954 2.542 3.67 3.962 5.415-16.366 10.611-34.657 19.317-54.664 24.377 30.074 20.216 50.756 60.099 50.756 95.986 0 50.674-41.049 91.737-91.737 91.737-50.674 0-91.742-41.064-91.742-91.737 0-35.916 20.687-75.77 50.761-95.986-17.611-4.457-34.035-11.646-48.909-20.498 1.541-4.676 2.576-9.59 2.576-14.801 0-8.526-2.1-16.279-5.488-23.118 3.359-6.543 5.488-13.878 5.488-21.752 0-8.526-2.1-16.308-5.488-23.147 3.388-6.572 5.488-13.912 5.488-21.728 0-8.584-2.1-16.337-5.488-23.205 2.221-4.321 3.582-8.997 4.457-13.907 26.608-3.787 57.464-5.682 88.315-5.682l-46.557 46.586 39.158 94.712h-0.389l-15.209 17.431c7.354-2.635 15.049-4.234 22.991-4.234 7.952 0 15.618 1.57 22.957 4.2l-15.2-17.402h-0.355v-0.044zM241.25 435.819h135.606c9.663 0 17.552 7.84 17.552 17.465v2.187c0 9.649-7.889 17.581-17.552 17.581h-135.606c-9.634 0-17.552-7.933-17.552-17.581v-2.187c0.029-9.624 7.947-17.465 17.552-17.465zM241.25 390.891h135.606c9.663 0 17.552 7.811 17.552 17.518v2.163c0 9.673-7.889 17.547-17.552 17.547h-135.606c-9.634 0-17.552-7.874-17.552-17.547v-2.163c0.029-9.644 7.947-17.518 17.552-17.518zM241.25 345.963h135.606c9.663 0 17.552 7.87 17.552 17.518v2.187c0 9.619-7.889 17.499-17.552 17.499h-135.606c-9.634 0-17.552-7.845-17.552-17.499v-2.187c0.029-9.649 7.947-17.518 17.552-17.518zM241.25 301.030h135.606c9.663 0 17.552 7.874 17.552 17.499v2.217c0 9.595-7.889 17.518-17.552 17.518h-135.606c-9.634 0-17.552-7.928-17.552-17.518v-2.217c0.029-9.624 7.947-17.499 17.552-17.499zM629.932 445.827l-67.808-117.446c-4.822-8.346-1.925-19.122 6.421-23.944l1.837-1.157c8.346-4.734 19.176-1.891 23.973 6.426l67.842 117.441c4.764 8.317 1.896 19.151-6.455 24.003l-1.896 1.099c-8.317 4.822-19.122 1.925-23.915-6.421zM659.947 408.409c0-9.644 7.87-17.518 17.518-17.518h135.65c9.619 0 17.494 7.811 17.494 17.518v2.163c0 9.673-7.874 17.547-17.494 17.547h-135.65c-9.619 0-17.518-7.874-17.518-17.547v-2.163zM830.575 365.668c0 9.619-7.84 17.499-17.494 17.499h-135.674c-9.595 0-17.465-7.845-17.465-17.499v-2.187c0-9.649 7.84-17.518 17.465-17.518h135.674c9.595 0 17.494 7.87 17.494 17.518v2.187zM813.115 338.263h-135.65c-9.619 0-17.518-7.928-17.518-17.518v-2.217c0-9.619 7.87-17.499 17.518-17.499h135.65c9.619 0 17.494 7.874 17.494 17.499v2.217c-0.034 9.649-7.874 17.518-17.494 17.518zM945.771 221.468v40.048l-80.597 52.151 56.891-52.151h-820.042l56.915 52.151-80.713-52.151v-40.048h80.713v-240.628h-20.065v-22.612h-29.85v-22.228h806.057v22.228h-29.952v22.612h-19.953v240.628zM512 712.441c68.265 0 123.794 55.525 123.794 123.809 0 68.226-55.588 123.75-123.794 123.75-68.255 0-123.78-55.525-123.78-123.746 0-68.284 55.495-123.814 123.78-123.814zM410.614 833.396h9.853v5.575h-9.853c0.486 16.429 5.031 31.775 12.429 45.404l8.244-4.778 2.8 4.807-8.375 4.856c8.346 13.542 19.638 24.877 33.223 33.253l4.885-8.404 4.778 2.751-4.754 8.288c13.6 7.413 28.946 11.972 45.375 12.419v-9.814h2.323l-14.991-29.981h10.149v-61.552c0-0.515 0.389-0.812 0.535-1.274 0.131-0.457-0.063-0.914 0.19-1.332l20.216-35.041-8.793-5.060 28.8-19.035-2.042 34.497-8.793-5.065-19.521 33.787v60.074h10.154l-14.961 29.981h2.265l0.029 9.814c16.429-0.447 31.741-5.002 45.356-12.419l-4.793-8.288 4.856-2.751 4.793 8.404c13.557-8.346 24.921-19.681 33.272-33.253l-8.38-4.885 2.81-4.778 8.229 4.778c7.427-13.63 11.958-28.946 12.458-45.375h-9.858v-5.575h9.828c-0.476-16.429-5.031-31.76-12.463-45.404l-8.254 4.793-2.751-4.764 8.38-4.836c-8.38-13.557-19.744-24.877-33.272-33.253l-4.856 8.375-4.759-2.766 4.759-8.273c-13.644-7.427-28.926-11.972-45.356-12.429v9.824h-5.566v-9.824c-16.429 0.457-31.804 5.002-45.375 12.429l4.778 8.273-4.807 2.766-4.827-8.404c-13.571 8.331-24.936 19.701-33.282 33.253l8.404 4.866-2.795 4.793-8.273-4.749c-7.393 13.571-11.938 28.873-12.424 45.302z" />
<glyph unicode="&#xe915;" glyph-name="road" d="M450.47 534.157c2.237 4.862 4.97 10.561 8.273 15.974 1.364 2.235 2.869 4.549 4.47 6.881l-0.144 0.117c-1.642-1.994-3.35-4.176-4.996-6.4-3.426-4.623-6.684-9.794-10.256-16.277-4.826-8.756-8.563-18.459-10.911-28.296l5.053-0.856c1.487 10.013 4.398 19.906 8.51 28.858zM522.359 326.916l-19.57-11.943c0.748-1.39 1.477-2.769 2.199-4.146 3.288-6.277 6.14-12.091 8.718-17.782 3.826-8.441 7.547-17.498 11.585-28.22l25.822 10.466c-9.682 20.184-18.923 36.773-28.754 51.624zM439.9 431.139c5.316-19.104 14.587-37.093 24.203-53.855l13.521 9.451c-9.718 14.023-20.068 30.112-26.707 47.868l-11.017-3.464zM543.645 195.799c2.981-17.027 4.754-35.101 5.275-53.855l39.154 2.496c-2.337 20.521-6.032 40.307-10.998 58.944l-33.432-7.585zM988.687 656.002v50.671h-105.931v78.389h-138.413v-33.898h-156.269v-122.88h-35.466c-43.788-23.481-68.185-56.22-75.582-73.355-5.981-13.858-9.049-27.447-9.127-40.387-0.148-26.055 16.89-54.239 50.635-83.766l0.203-0.178c39.514-34.506 137.852-126.538 186.213-257.751 12.911-35.023 19.974-86.66 19.974-86.66h299.076v569.814h-35.315zM706.555 549.544c-0.405-0.356-0.811-0.722-1.214-1.085h-68.296v52.965h69.512l-0.002-51.881zM706.555 654.39h-69.512v52.965h69.512v-52.965zM838.27 521.517h-53.118v40.474h53.118v-40.474zM838.27 585.075h-53.118v40.474h53.118v-40.474zM838.27 648.634h-53.118v40.474h53.118v-40.474zM838.27 712.192h-53.118v40.474h53.118v-40.474zM956.912 434.601h-53.118v40.474h53.118v-40.474zM956.912 498.159h-53.118v40.474h53.118v-40.474zM956.912 561.718h-53.118v40.474h53.118v-40.474zM956.912 625.276h-53.118v40.474h53.118v-40.474zM387.742 379.316c-7.176 27.786-9.712 54.145-8.038 78.213 1.881 27.023 8.841 51.474 20.133 70.713 7.58 12.924 14.71 22.633 22.438 30.55 9.239 9.47 18.445 17.19 28.144 23.606 4.102 2.712 11.025 7.782 18.377 12.222v203.268h-166.015v-187.554h-28.646l0.161 199.478h-133.051v-199.478h-8.193v69.505h-133.053v-593.65h390.183c0 0 41.093 46.48 36.252 131.238-4.121 72.236-25.836 112.136-38.692 161.89zM92.518 413.47h-53.118v40.474h53.118v-40.474zM92.518 477.026h-53.118v40.474h53.118v-40.474zM92.518 540.584h-53.118v40.474h53.118v-40.474zM92.518 604.143h-53.118v40.474h53.118v-40.474zM180.644 774.587h53.114v-40.474h-53.114v40.474zM180.644 711.029h53.114v-40.474h-53.114v40.474zM180.644 647.471h53.114v-37.137h-53.114v37.137zM265.687 406.891h-69.512v52.965h69.512v-52.965zM265.687 512.822h-69.512v52.965h69.512v-52.965zM351.031 741.253h69.512v-52.965h-69.512v52.965zM351.031 635.322h69.512v-51.881c-0.405-0.356-0.811-0.722-1.214-1.085h-68.296l-0.002 52.965z" />
<glyph unicode="&#xe916;" glyph-name="shop" d="M94.784 573.336h257.542v-55.771h-257.542v55.771zM671.674 573.336h257.54v-55.771h-257.54v55.771zM352.326 503.991h-317.37v-252.102h317.37v252.102zM141.239 421.176h-73.627v32.956h73.627v-32.956zM228.887 421.176h-73.622v32.956h73.622v-32.956zM316.538 421.176h-73.622v32.956h73.622v-32.956zM989.044 503.991h-317.37v-252.102h317.37v252.102zM781.086 421.176h-73.624v32.956h73.624v-32.956zM868.735 421.176h-73.624v32.956h73.624v-32.956zM956.385 421.176h-73.624v32.956h73.624v-32.956zM521.6 578.666c-5.966 2.843-9.747 4.818-11.347 5.917-1.598 1.101-2.761 2.231-3.492 3.403-0.733 1.174-1.099 2.549-1.099 4.132 0 2.54 0.905 4.602 2.713 6.178 1.812 1.58 4.41 2.366 7.793 2.366 2.852 0 5.747-0.364 8.692-1.097 2.951-0.728 6.67-2.017 11.175-3.869l5.772 13.918c-4.348 1.887-8.513 3.353-12.499 4.388-3.986 1.040-8.168 1.56-12.556 1.56-8.932 0-15.929-2.136-20.992-6.412-5.063-4.273-7.595-10.142-7.595-17.61 0-3.966 0.775-7.431 2.315-10.395 1.536-2.964 3.6-5.562 6.175-7.791 2.58-2.234 6.451-4.56 11.607-6.985 5.505-2.622 9.151-4.527 10.943-5.716 1.79-1.198 3.147-2.437 4.070-3.726 0.925-1.291 1.386-2.763 1.386-4.423 0-2.966-1.051-5.193-3.145-6.692-2.101-1.503-5.112-2.253-9.038-2.253-3.271 0-6.884 0.516-10.828 1.558-3.946 1.037-8.764 2.83-14.465 5.372v-16.628c6.933-3.386 14.898-5.083 23.905-5.083 9.782 0 17.41 2.196 22.896 6.582 5.485 4.388 8.228 10.391 8.228 18.017 0 5.502-1.461 10.153-4.388 13.942-2.924 3.792-8.334 7.575-16.227 11.349zM1002.615 241.734h-340.395c0 117.517 0 369.537 0 436.968-49.426 15.408-99.823 23.113-150.211 23.113-50.399 0-100.792-7.705-150.231-23.113 0-67.434 0-319.451 0-436.968h-361.779v-47.552h1024v47.552h-21.385zM452.025 632.969h119.949v-129.021h-119.949v129.021zM545.712 241.734h-67.425v140.482h67.425v-140.482zM618.675 387.937c-72.79 19.67-140.581 19.672-213.352 0l-5.26 19.46c76.352 20.641 147.492 20.641 223.871 0l-5.26-19.46z" />
<glyph unicode="&#xe917;" glyph-name="arrowb" d="M717.274 725.852v172.646c0 27.523-22.511 50.042-50.042 50.042h-617.189c-27.523 0-50.042-22.519-50.042-50.042v-707.274c0-18.341 10.843-35.855 26.689-44.196l380.322-196.842c16.681-8.34 36.698 3.328 36.698 22.519v191.829h223.523c27.532 0 50.042 22.511 50.042 50.042v273.565h-100.085v-198.501c0-14.179-10.843-25.021-25.021-25.021h-147.625v424.526c0 18.349-10.843 35.864-26.689 44.204l-224.357 115.097h398.671c14.179 0 25.021-10.843 25.021-25.021v-98.417h100.085v0.842zM845.716 807.596l162.638-162.638c20.851-20.851 20.851-51.71 0-72.561l-162.638-162.638c-20.851-20.851-52.553-21.693-73.404-0.842-20.009 20.009-17.515 53.379 1.676 73.395l73.387 72.561h-284.399c-14.17 0-28.357 5.838-37.532 16.681-23.353 25.021-17.515 69.225 12.511 85.906 7.506 4.17 16.681 6.672 25.021 6.672h284.407c0 0-72.553 72.561-73.387 72.561-19.191 19.183-21.693 53.379-1.676 72.561 20.017 20.017 52.544 19.191 73.395-1.66z" />
<glyph unicode="&#xe918;" glyph-name="arrows" d="M298.667 640v128l-298.667-298.667 298.667-298.667v128l-170.667 170.667 170.667 170.667zM554.667 597.333v170.667l-298.667-298.667 298.667-298.667v174.933c213.333 0 362.667-68.267 469.333-217.6-42.667 213.333-170.667 426.667-469.333 469.333z" />
<glyph unicode="&#xe919;" glyph-name="bell" d="M520.211 57.7c-39.257 0-77.422-0.195-113.978-0.186-0.154-2.413-0.259-4.834-0.259-7.279 0-63.097 51.146-114.234 114.237-114.234 63.088 0 114.237 51.14 114.237 114.234 0 2.445-0.108 4.866-0.262 7.279-36.556-0.012-74.715 0.186-113.975 0.186zM875.736 352.626c17.122 6.918 29.475 26.416 29.475 49.432 0 28.802-19.323 52.142-43.154 52.142h-26.518c-2.416 47.386-0.693 104.344-0.693 104.344 0 151.355-104.155 284.303-244.694 321.039 2.422 6.487 3.81 13.481 3.81 20.816-0.006 32.918-26.695 59.601-59.607 59.601h-44.696c-32.918 0-59.607-26.686-59.607-59.598 0-7.334 1.388-14.328 3.813-20.816-140.545-36.736-244.7-169.685-244.7-321.039 0 0 1.723-56.958-0.693-104.344h-26.518c-23.834 0-43.16-23.339-43.16-52.142 0-23.016 12.352-42.508 29.472-49.432-55.625-64.686-121.362-97.202-121.362-166.626 0-109.438 217.187-100.162 485.095-100.162 267.905 0 485.095-9.276 485.095 100.162 0 69.418-65.736 101.94-121.359 166.623zM460.761 797.647c-34.725-8.158-67.742-25.691-96.85-49.508-67.457-55.189-93.5-135.294-87.242-220.907 1.577-21.581-31.957-21.43-33.526 0-6.715 91.812 22.463 183.582 95.191 243.085 32.539 26.622 72.131 49.938 113.515 59.662 21.031 4.939 29.958-27.388 8.912-32.333z" />
<glyph unicode="&#xe91a;" glyph-name="buildings" d="M1016.687 853.072c-9.177 9.046-23.79 9.445-33.448 0.919l-487.471-430.226c-10.155-8.965-11.123-24.464-2.159-34.622 8.965-10.155 24.467-11.126 34.622-2.159l223.716 197.447-319.056-372.354-108.236 156.735 93.522-56.136c11.617-6.97 26.685-3.205 33.657 8.409 6.97 11.617 3.205 26.685-8.409 33.657l-190.798 114.525c-9.9 5.943-22.613 4.173-30.514-4.248s-8.857-21.216-2.296-30.72l190.798-276.297c4.324-6.263 11.31-10.162 18.907-10.557 0.425-0.023 0.854-0.033 1.279-0.033 7.14 0 13.952 3.117 18.626 8.569l568.669 663.663c8.386 9.782 7.768 24.385-1.41 33.428zM831.629 554.231c-13.547 0-24.529-10.983-24.529-24.529v-468.158h-673.765v468.158c0 1.4-0.144 2.764-0.37 4.098l337.251 292.706 185.496-160.997c10.23-8.883 25.726-7.781 34.603 2.446 8.88 10.23 7.784 25.723-2.446 34.603l-201.575 174.949c-9.223 8.006-22.933 8.006-32.156 0l-445.686-386.816c-10.23-8.88-11.326-24.372-2.446-34.603 4.85-5.589 11.673-8.451 18.534-8.451 5.697 0 11.424 1.975 16.068 6.005l43.669 37.899v-454.526c0-13.547 10.983-24.529 24.529-24.529h722.824c13.547 0 24.529 10.983 24.529 24.529v492.687c0 13.547-10.983 24.529-24.529 24.529z" />
<glyph unicode="&#xe91b;" glyph-name="interfaceab" d="M997.281 678.565h-572.21c-18.098 0-35.777-14.666-39.499-32.762l-81.337-395.606c-3.713-18.094 7.947-32.762 26.030-32.762h572.224c18.098 0 35.777 14.666 39.495 32.762l81.324 395.606c3.726 18.096-7.927 32.762-26.025 32.762zM928.827 546.17l-253.942-122.47c-10.953-5.29-23.43-5.29-32.213 0l-203.585 122.47c-14.763 8.876-16.779 29.594-4.486 46.183 8.23 11.115 21.19 18.028 33.812 18.028 5.575 0 10.85-1.397 15.25-4.043l189.248-113.853 236.077 113.853c5.472 2.644 11.322 4.040 16.91 4.040 12.617 0 22.736-6.908 26.396-18.013 5.479-16.596-5.050-37.323-23.467-46.197zM89.76 592.176h246.536c13.054 0 23.627 10.577 23.627 23.621 0 13.048-10.571 23.621-23.627 23.621h-246.536c-13.041 0-23.623-10.573-23.623-23.621 0-13.043 10.58-23.621 23.623-23.621zM270.168 424.474h-246.54c-13.050 0-23.627-10.573-23.627-23.616 0-13.048 10.575-23.623 23.627-23.623h246.54c13.039 0 23.619 10.571 23.619 23.623 0 13.043-10.58 23.616-23.619 23.616zM326.849 509.704c0 13.046-10.569 23.616-23.61 23.616h-147.351c-13.041 0-23.61-10.571-23.61-23.616 0-13.041 10.569-23.619 23.61-23.619h147.351c13.041 0 23.61 10.575 23.61 23.619zM237.094 318.385h-78.726c-13.050 0-23.627-10.571-23.627-23.623 0-13.039 10.575-23.621 23.627-23.621h78.726c13.054 0 23.627 10.577 23.627 23.621-0.002 13.048-10.573 23.623-23.627 23.623z" />
<glyph unicode="&#xe91c;" glyph-name="map" d="M920.931 488.463c-30.762-34.53-60.896-71.727-81.928-123.047-9.572-23.699-32.33-39.081-57.915-39.081-25.739 0-48.496 15.382-58.226 39.237-24.33 59.643-61.212 100.29-96.997 139.528-8.945 9.887-17.892 19.776-26.679 29.977-0.47-0.157-0.788-0.315-1.255-0.47-34.843-10.514-61.683-56.658-45.516-94.17 10.986-25.739 88.049-20.875 81.458-76.276-5.493-45.357 53.83-57.285 74.862-55.090 21.032 2.511 53.363-34.53 37.040-50.852-16.163-16.324-46.771-16.951-42.063-59.014 1.255-12.241 38.298-10.673 38.298-29.192 0-18.676-19.146-39.866-4.396-61.368 3.141-4.707 6.435-8.317 9.889-11.142-70.94-65.292-165.582-105.313-269.325-105.313-219.258 0-397.553 178.295-397.553 397.553 0 66.545 16.481 129.327 45.516 184.573-0.157-71.412 37.982-130.739 55.873-148.631 58.385-58.227 142.982-39.864 153.809-88.675 10.986-48.655-58.072-48.812-53.519-86.008 4.707-37.354 94.64-47.243 74.551-81.614-26.525-45.672 17.892-48.968 5.023-105.311-6.905-30.764 37.51-36.727 53.991-13.342 12.556 17.892 10.044 39.866 35.313 66.702 30.919 32.96 102.646 38.296 94.64 92.759-13.653 90.401-101.545 104.528-139.841 125.718-43.475 23.855-32.801 81.142-42.22 108.45-13.183 38.766-57.915-10.831-81.771 11.771-39.237 37.040 7.063 89.461 40.021 88.362 69.528-2.197 90.873-69.843 116.455-67.487 24.956 2.197 41.122 37.040 45.516 55.559 9.261 40.336-15.695 22.287-25.739 43.319-13.498 28.093 47.398 54.931 70.94 75.649 3.611 3.139 6.278 6.121 7.69 8.947 7.066 13.811-2.195 24.327-17.892 33.901-31.388 18.993-88.675 34.058-91.342 63.721-1.571 18.208 33.273 26.995 72.98 28.565 6.591-0.315 13.026-0.942 19.62-1.569 3.295 18.678 8.63 37.041 15.85 54.618-18.991 2.511-38.295 3.768-57.915 3.768-250.177 0-453.739-203.562-453.739-453.739-0.002-250.186 203.562-453.747 453.739-453.747s453.742 203.564 453.742 453.741c0 33.901-3.768 67.017-10.988 98.722zM759.738 958.991c-128.087-12.107-215.816-136.22-193.461-262.924 22.702-128.704 141.369-168.321 200.259-312.792 5.307-13.019 23.637-13.084 28.941-0.064 65.282 160.236 204.089 191.506 204.089 358.243-0.002 127.721-109.563 229.85-239.828 217.536zM781.019 626.040c-63.742 0-115.416 51.672-115.416 115.414s51.674 115.412 115.416 115.412 115.412-51.672 115.412-115.412-51.674-115.414-115.412-115.414z" />
<glyph unicode="&#xe91d;" glyph-name="pen" d="M840.079 412.871l72.912 165.044 17.624-7.786-63.555-145.974 65.166-28.372 91.774 210.79-82.287 36.353 56.43 127.736-209.171 92.406-142.253-322.001h-646.719v-508.136h840.079v379.939zM724.418 541.068l44.412 100.533 79.148-34.965-131.245-297.092-67.886-46.605-11.262 81.57 86.833 196.559zM904.408 734.371l-27.709-62.724-79.148 34.965 27.709 62.724 79.148-34.965zM769.006 104.004h-697.933v365.99h544.248l-29.561-66.916h-419.831v-71.073h401.636l26.619-192.806 174.823 120.020v-155.214zM165.929 242.814h342.832v-71.073h-342.832v71.073z" />
<glyph unicode="&#xe91e;" glyph-name="peopleb" d="M864.071 509.401c-24.956 48.074 10.556 76.845 12.951 101.69 11.030 114.613-27.685 184.774-80.299 240.284-86.928 91.941-198.7 109.238-271.869 108.625-187.309-1.365-263.123-60.802-320.472-124.752-119.293-133.163-94.058-250.060-94.058-250.060 2.841-69.325 98.515-195.553 98.515-195.553 76.26-109.656 38.799-194.244 38.799-194.244 153.997-34.621 280.253-259.363 280.253-259.363 5.571 33.284 79.575 173.8 79.575 173.8 30.916 38.882 82.889 25.207 110.881 21.781 80.41-9.888 100.381 13.759 100.381 13.759 17.575 10.751 9.247 55.482 9.247 55.482-6.434 23.145 4.066 34.454 10.612 43.506 17.631 24.622 7.437 36.041 7.437 36.041-5.543 6.991-1.81 10.668-1.81 10.668 19.385 6.462 20.806 17.074 20.806 17.074l-0.501 35.596c-3.203 24.455 7.854 25.959 7.854 25.959 44.425 0.808 43.45 29.579 43.45 29.579 1.81 15.82-51.75 110.129-51.75 110.129zM513.824 302.874c-36.765 0-61.777 27.073-61.777 63.225 0 36.738 25.708 63.17 61.777 63.17 37.517 0 61.833-26.349 62.529-63.17 0.028-36.153-25.039-63.225-62.529-63.225zM597.856 561.179c-25.708-28.465-36.097-55.538-35.401-86.761v-12.506h-92.303l-0.696 18.021c-2.089 35.401 9.721 71.47 40.943 109.015 22.282 26.349 40.303 48.575 40.303 72.194 0 24.315-15.987 40.247-50.692 41.667-22.895 0-50.664-8.384-68.74-20.834l-23.591 75.648c24.956 14.567 66.651 28.437 115.922 28.437 91.663 0 133.302-50.636 133.302-108.291-0.028-52.753-32.643-87.485-59.047-116.591z" />
<glyph unicode="&#xe91f;" glyph-name="search" d="M671.241 960c-194.511 0-352.759-158.246-352.759-352.759 0-80.035 26.81-153.916 71.894-213.173l-71.461-71.461c-0.453-0.453-0.867-0.931-1.258-1.422-5.85 1.219-11.861 1.858-17.974 1.858-23.333 0-45.273-9.088-61.778-25.593l-212.317-212.317c-16.501-16.497-25.587-38.434-25.587-61.769s9.085-45.275 25.584-61.767c16.506-16.506 38.445-25.593 61.778-25.593s45.273 9.088 61.778 25.593l212.317 212.317c16.501 16.495 25.587 38.432 25.587 61.769 0 6.115-0.639 12.129-1.858 17.979 0.491 0.389 0.966 0.803 1.42 1.256l71.459 71.459c59.259-45.087 133.14-71.894 213.175-71.894 194.511 0 352.759 158.246 352.759 352.759s-158.249 352.759-352.759 352.759zM125.68-14.948c-10.238-10.238-23.844-15.875-38.317-15.875s-28.079 5.638-38.319 15.877c-10.233 10.229-15.869 23.833-15.869 38.308s5.635 28.079 15.871 38.31l191.746 191.746 76.627-76.627-191.74-191.74zM340.761 200.366l-76.364 76.364c10.118 8.705 22.687 13.106 35.285 13.106 13.876 0 27.756-5.284 38.319-15.849 10.233-10.229 15.869-23.833 15.869-38.308 0-13.106-4.636-25.492-13.108-35.314zM370.961 286.185c-2.826 3.972-5.985 7.747-9.501 11.262-3.521 3.519-7.301 6.679-11.275 9.508l61.575 61.575c6.635-7.208 13.566-14.139 20.774-20.774l-61.573-61.57zM671.241 287.656c-176.221 0-319.585 143.364-319.585 319.585s143.364 319.585 319.585 319.585 319.585-143.364 319.585-319.585-143.364-319.585-319.585-319.585zM671.241 889.227c-155.488 0-281.986-126.498-281.986-281.986s126.498-281.986 281.986-281.986 281.986 126.498 281.986 281.986-126.498 281.986-281.986 281.986zM671.241 358.429c-137.194 0-248.812 111.616-248.812 248.812s111.618 248.812 248.812 248.812 248.812-111.616 248.812-248.812-111.618-248.812-248.812-248.812zM786.421 784.31c-7.674 5.003-17.95 2.838-22.953-4.839-5.003-7.674-2.835-17.952 4.839-22.953 50.7-33.042 80.969-88.847 80.969-149.278 0-41.285-14.451-81.522-40.692-113.294-5.834-7.062-4.837-17.519 2.227-23.353 3.092-2.554 6.834-3.797 10.554-3.797 4.777 0 9.519 2.055 12.799 6.025 31.138 37.702 48.287 85.441 48.287 134.418 0.002 71.689-35.897 137.881-96.030 177.072zM709.624 814.971c-12.58 2.311-25.494 3.483-38.383 3.483-9.163 0-16.587-7.427-16.587-16.587s7.425-16.587 16.587-16.587c10.886 0 21.783-0.989 32.39-2.937 1.015-0.186 2.021-0.276 3.017-0.276 7.849 0 14.825 5.598 16.295 13.593 1.654 9.010-4.308 17.656-13.319 19.312z" />
<glyph unicode="&#xe920;" glyph-name="shape2" d="M517.827 516.644l427.039 204.679c-90.742 143.394-250.632 238.677-432.866 238.677-151.122 0-286.9-65.501-380.628-169.642l386.455-273.715zM62.638 693.532c-39.914-72.894-62.638-156.557-62.638-245.532 0-121.061 42.117-232.246 112.36-319.88l308.238 311.861-357.959 253.551zM546.971 398.905l-350.142-354.246c86.906-68.018 196.269-108.669 315.172-108.669 282.762 0 512 229.238 512 512 0 58.232-9.875 114.116-27.757 166.264l-449.272-215.348z" />
<glyph unicode="&#xe921;" glyph-name="shapes" d="M1012.576 487.421c-53.341 87.238-125.061 157.333-215.151 210.284-90.096 52.953-185.233 79.432-285.424 79.432s-195.333-26.469-285.428-79.432c-90.098-52.951-161.814-123.046-215.147-210.284-7.616-13.332-11.424-26.475-11.424-39.431s3.809-26.099 11.424-39.427c53.333-87.242 125.049-157.343 215.147-210.282 90.096-52.959 185.237-79.418 285.428-79.418 100.193 0 195.331 26.371 285.424 79.13 90.090 52.761 161.822 122.954 215.151 210.57 7.618 13.328 11.424 26.465 11.424 39.427 0 12.955-3.807 26.099-11.424 39.431zM389.42 643.709c34.093 34.093 74.949 51.145 122.574 51.145 7.616 0 14.096-2.674 19.432-8.004 5.328-5.332 8.006-11.811 8.006-19.428 0-7.624-2.678-14.098-7.994-19.422-5.328-5.338-11.813-8.004-19.43-8.004-32.76 0-60.768-11.624-84.003-34.857-23.243-23.247-34.857-51.243-34.857-84.003 0-7.628-2.674-14.098-8.004-19.434-5.338-5.34-11.811-8.004-19.428-8.004-7.624 0-14.098 2.67-19.434 8.004-5.338 5.336-8.004 11.815-8.004 19.434 0 47.615 17.052 88.479 51.143 122.574zM760.289 261.41c-76.384-46.274-159.144-69.425-248.289-69.425-89.143 0-171.904 23.137-248.283 69.425s-139.904 108.479-190.569 186.58c57.904 89.908 130.475 157.151 217.713 201.713-23.237-39.613-34.859-82.474-34.859-128.566 0-70.483 25.052-130.754 75.143-180.856s110.383-75.143 180.856-75.143c70.479 0 130.754 25.054 180.856 75.143s75.145 110.373 75.145 180.856c0 46.092-11.624 88.959-34.863 128.566 87.234-44.563 159.809-111.812 217.711-201.713-50.657-78.101-114.175-140.292-190.559-186.58z" />
<glyph unicode="&#xe922;" glyph-name="signb" d="M946.813 616.563h-170.852l-227.388 227.413c-19.642 19.427-53.313 19.561-73.225-0.135l-227.255-227.278h-170.924c-42.558 0-77.169-34.622-77.169-77.175v-424.793c0-42.553 34.611-77.175 77.169-77.175h869.644c42.558 0 77.189 34.622 77.189 77.175v424.793c-0.002 42.553-34.632 77.175-77.189 77.175zM512.025 783.168l166.589-166.605h-333.171l166.582 166.605zM955.148 114.595c0-4.586-3.714-8.334-8.336-8.334h-869.644c-4.605 0-8.338 3.749-8.338 8.334v424.793c0 4.584 3.733 8.334 8.338 8.334h869.644c4.622 0 8.336-3.752 8.336-8.334v-424.793zM889.908 512.379h-755.817c-14.258 0-25.83-11.563-25.83-25.818v-319.161c0-14.254 11.572-25.813 25.83-25.813h755.815c14.26 0 25.815 11.559 25.815 25.813v319.161c0.002 14.254-11.553 25.818-25.813 25.818zM864.096 193.216h-704.197v267.53h704.195v-267.53zM291.326 241.104c48.64 0 81.72 33.078 81.72 87.609 0 45.918-27.908 84.166-78.996 84.166-49.102 0-80.943-37.273-80.943-87.141 0-47.378 28.84-84.635 78.219-84.635zM293.037 383.020c25.95 0 40.277-25.689 40.277-55.53 0-32.339-14.598-56.522-40.014-56.522-25.171 0-40.457 22.938-40.457 55.53 0 32.332 14.785 56.522 40.194 56.522zM416.477 243.807c10.275 0 18.611 8.35 18.611 18.636v40.84c3.428-0.468 7.888-0.737 12.821-0.737 22.201 0 41.24 5.444 54.073 17.529 9.883 9.382 15.286 23.216 15.286 39.498 0 16.284-7.161 30.114-17.743 38.487-11.122 8.908-27.655 13.345-50.856 13.345-18.522 0-32.707-0.978-43.587-2.388-4.174-0.541-7.271-4.083-7.271-8.267v-138.306c0-10.285 8.334-18.636 18.667-18.636zM435.088 381.539c2.718 0.733 7.888 1.481 15.536 1.481 18.791 0 29.368-9.127 29.368-24.438 0-17.042-12.336-27.145-32.335-27.145-5.405 0-9.37 0.255-12.568 0.992v49.11zM549.605 243.807h82.364c8.495 0 15.429 6.909 15.429 15.429s-6.935 15.429-15.429 15.429h-52.944v39.494h45.959c8.423 0 15.288 6.84 15.288 15.298 0 8.452-6.865 15.294-15.288 15.294h-45.959v34.572h49.479c8.531 0 15.427 6.904 15.427 15.425 0 8.524-6.896 15.427-15.427 15.427h-78.898c-4.605 0-8.336-3.725-8.336-8.346v-149.668c0-4.624 3.733-8.352 8.336-8.352zM690.415 243.807c9.581 0 17.318 7.743 17.318 17.297v32.805c0 27.158-0.516 50.608-1.475 72.57l0.729 0.251c8.141-19.508 19-40.991 28.865-58.74l33.159-59.878c1.473-2.652 4.267-4.303 7.288-4.303h26.257c4.605 0 8.338 3.731 8.338 8.35v140.744c0 9.548-7.735 17.27-17.283 17.27s-17.279-7.723-17.279-17.27v-31.363c0-24.927 0.75-47.382 3.203-69.342h-0.708c-7.435 18.752-17.285 39.494-27.166 57.002l-32.161 56.743c-1.489 2.618-4.249 4.23-7.271 4.23h-30.754c-4.605 0-8.334-3.725-8.334-8.346v-140.723c-0.002-9.554 7.731-17.297 17.275-17.297z" />
<glyph unicode="&#xe923;" glyph-name="signs" d="M512 140.797c28.25 0 51.203 22.953 51.203 51.203v409.601c0 28.264-22.953 51.196-51.203 51.196-28.264 0-51.196-22.939-51.196-51.196v-409.601c0-28.25 22.931-51.203 51.196-51.203zM921.601 857.601h-153.601v51.196c0 28.264-22.953 51.203-51.203 51.203h-409.594c-28.264 0-51.196-22.939-51.196-51.203v-51.196h-153.601c-28.286 0-51.203-22.939-51.203-51.203s22.917-51.196 51.203-51.196v-716.797c0-56.55 45.848-102.406 102.399-102.406h614.399c56.55 0 102.406 45.848 102.406 102.406v716.797c28.25 0 51.196 22.939 51.196 51.196s-22.953 51.203-51.203 51.203zM819.203 38.406h-614.399v716.797h614.399v-716.797zM358.406 140.797c28.264 0 51.196 22.953 51.196 51.203v409.601c0 28.264-22.939 51.196-51.196 51.196s-51.203-22.939-51.203-51.196v-409.601c0-28.25 22.939-51.203 51.203-51.203zM665.601 140.797c28.25 0 51.196 22.953 51.196 51.203v409.601c0 28.264-22.946 51.196-51.196 51.196s-51.203-22.939-51.203-51.196v-409.601c0.007-28.25 22.953-51.203 51.203-51.203z" />
<glyph unicode="&#xe924;" glyph-name="social" d="M941.667 917.458h-569.191c-33.635 0-61.003-27.36-61.003-60.997v-83.798c0-33.635 27.37-60.997 61.003-60.997h569.191c33.635 0 60.997 27.362 60.997 60.997v83.798c0 33.637-27.362 60.997-60.997 60.997zM951.465 772.663c0-5.394-4.404-9.796-9.798-9.796h-175.531v103.39h175.531c5.394 0 9.798-4.402 9.798-9.796v-83.798zM202.777 751.661c-0.634 0.433-1.098 1.036-1.698 1.531-19.002-17.626-42.635-28.231-68.337-28.231-25.736 0-49.368 10.605-68.329 28.198-0.601-0.464-1.096-1.067-1.667-1.5-21.064-16.557-36.204-40.431-41.207-68.399-0.662-3.5 0.343-7.097 2.611-9.829 2.258-2.734 5.665-4.296 9.198-4.296h198.801c3.533 0 6.928 1.562 9.196 4.296 2.268 2.732 3.263 6.327 2.6 9.829-5.035 27.971-20.166 51.845-41.165 68.401zM132.739 762.66c41.403 0 74.935 44.207 74.935 98.669 0 54.505-33.532 98.671-74.935 98.671-41.395 0-74.935-44.166-74.935-98.669 0-54.464 33.54-98.671 74.935-98.671zM941.667 550.902h-569.191c-33.635 0-61.003-27.372-61.003-61.007v-83.8c0-33.623 27.37-60.999 61.003-60.999h569.191c33.635 0 60.997 27.376 60.997 60.999v83.8c0 33.635-27.362 61.007-60.997 61.007zM951.465 406.095c0-5.394-4.404-9.796-9.798-9.796h-354.731v103.403h354.731c5.394 0 9.798-4.402 9.798-9.806v-83.8zM202.777 385.103c-0.634 0.423-1.098 1.024-1.698 1.531-19.002-17.634-42.635-28.239-68.337-28.239-25.736 0-49.368 10.605-68.329 28.198-0.601-0.468-1.096-1.069-1.667-1.492-21.064-16.569-36.204-40.439-41.207-68.403-0.662-3.498 0.343-7.101 2.611-9.839 2.258-2.732 5.665-4.296 9.198-4.296h198.801c3.533 0 6.928 1.564 9.196 4.296 2.268 2.736 3.263 6.339 2.6 9.839-5.035 27.966-20.166 51.837-41.165 68.405zM132.739 396.098c41.403 0 74.935 44.203 74.935 98.665 0 54.503-33.532 98.669-74.935 98.669-41.395 0-74.937-44.166-74.937-98.669 0.002-54.461 33.542-98.665 74.937-98.665zM202.777 18.537c-0.634 0.431-1.098 1.036-1.698 1.531-19.002-17.634-42.635-28.231-68.337-28.231-25.736 0-49.368 10.597-68.329 28.198-0.601-0.464-1.096-1.069-1.667-1.5-21.064-16.569-36.204-40.431-41.207-68.401-0.662-3.498 0.343-7.095 2.611-9.827 2.258-2.736 5.665-4.309 9.198-4.309h198.801c3.533 0 6.928 1.572 9.196 4.309 2.268 2.732 3.263 6.327 2.6 9.827-5.035 27.973-20.166 51.834-41.165 68.403zM132.739 29.532c41.403 0 74.935 44.199 74.935 98.671 0 54.492-33.532 98.66-74.935 98.66-41.395 0-74.937-44.166-74.937-98.66 0.002-54.472 33.542-98.671 74.937-98.671zM941.667 184.334h-569.191c-33.635 0-61.003-27.372-61.003-60.999v-83.798c0-33.635 27.37-61.007 61.003-61.007h569.191c33.635 0 60.997 27.372 60.997 61.007v83.798c0 33.627-27.362 60.999-60.997 60.999zM951.465 39.537c0-5.405-4.404-9.806-9.798-9.806h-94.465v103.403h94.465c5.394 0 9.798-4.402 9.798-9.798v-83.798z" />
<glyph unicode="&#xe925;" glyph-name="social-1" d="M195.508 626.541c2.414-14.552 8.027-23.753 13.573-29.561 13.182-87.835 86.595-169.34 153.744-169.34 78.242 0 149.502 88.226 163.206 169.144 5.677 5.743 11.355 15.009 13.834 29.757 4.437 16.445 10.18 45.027 0.131 58.47-0.522 0.653-1.109 1.37-1.631 1.892 9.462 34.521 21.404 105.911-21.339 154.527-3.785 4.829-27.799 33.476-79.025 48.616l-24.471 8.418c-40.328 12.464-65.648 15.27-66.757 15.4-1.827 0.131-3.72 0-5.482-0.457-1.37-0.392-6.199-1.697-9.919-1.175-9.658 1.37-24.145-3.589-26.69-4.568-3.328-1.37-81.44-32.628-105.128-105.389-2.219-5.873-11.681-36.804 0.914-112.632-1.892-1.305-3.589-2.871-5.025-4.764-10.18-13.312-4.437-41.894 0.065-58.339zM507.954 72.907c-14.422 8.092-30.083 15.857-46.789 23.231-8.092 3.589-16.314 6.982-24.471 10.18-6.395 2.414-13.965 5.547-19.251 6.917l-77.394 20.882 144.803 294.827 62.059-39.154c13.116-8.222 22.774-15.205 33.346-22.97l2.219-1.631c10.506-7.765 20.817-15.727 30.931-23.949 21.991-17.75 41.438-35.108 59.514-53.053 1.37-1.37 2.676-2.61 4.046-3.981 6.069 6.721 12.007 12.725 17.945 19.185-7.57 22.513-16.771 43.33-27.995 60.036 0 0-15.923 21.73-53.706 36.217 0 0-3.198 0.979-8.092 2.61-33.607 15.727-65.517 25.841-65.517 25.841-6.852 2.48-12.855 4.894-18.272 7.243-22.84 11.289-41.829 24.014-45.745 36.021 0 0 13.182-127.576-98.341-130.578l-15.531 0.718c-101.082 9.005-107.803 130.121-107.803 130.121-10.572-33.215-137.691-71.847-137.691-71.847-37.783-14.487-53.771-36.282-53.771-36.282-55.859-82.875-62.45-267.289-62.45-267.289 0.718-42.155 18.924-46.528 18.924-46.528 128.489-57.36 330.066-67.475 330.066-67.475 10.898-0.261 21.012 0.326 31.127 0.914l0.261-1.044c0 0 98.406 5.025 201.576 27.603l-12.594 16.51c-10.245 13.508-33.15 30.931-61.406 46.723zM471.28 465.945c1.37 1.762 2.871 3.524 4.307 5.482-0.326 1.175-0.392 1.762-0.392 1.762-1.24-2.545-2.676-4.698-3.915-7.243zM254.499 471.819l-0.326 1.37-0.261-1.436c0.065 0.261 0.326 0.522 0.392 0.783 0.065-0.065 0.131-0.326 0.196-0.718zM905.886 412.631c-36.609-25.841-70.738-55.076-103.235-85.812-32.563-30.931-63.429-63.494-93.121-97.101-11.028-12.529-21.73-25.189-32.367-37.914-0.131 0.196-0.261 0.392-0.326 0.587-15.661 20.882-32.628 39.48-50.247 56.903-17.619 17.358-35.891 33.411-54.685 48.681-9.462 7.57-18.99 15.009-28.713 22.318-10.115 7.309-18.99 13.9-31.388 21.73l-77.133-156.941c7.048-1.892 17.293-5.873 25.972-9.266 9.201-3.524 18.206-7.309 27.212-11.289 18.011-7.961 35.565-16.64 52.335-25.972 33.15-18.533 64.016-41.111 81.635-64.147l59.318-77.785 34.129 74.001c17.162 37.066 37.718 75.828 58.796 112.763 21.274 37.196 43.983 73.674 68.584 108.847s50.965 69.172 80.461 100.495c29.496 31.127 62.059 60.101 100.886 80.657-42.155-12.529-81.57-35.173-118.114-60.754z" />
<glyph unicode="&#xe926;" glyph-name="symbols" d="M128 800v128c0 17.688 14.312 32 32 32s32-14.312 32-32v-128c0-17.688-14.312-32-32-32s-32 14.312-32 32zM672 768c17.688 0 32 14.312 32 32v128c0 17.688-14.312 32-32 32s-32-14.312-32-32v-128c0-17.688 14.312-32 32-32zM1024 192c0-141.376-114.624-256-256-256s-256 114.624-256 256 114.624 256 256 256 256-114.624 256-256zM960 192c0 105.876-86.124 192-192 192s-192-86.124-192-192 86.124-192 192-192 192 86.124 192 192zM256 576h-128v-128h128v128zM128 256h128v128h-128v-128zM320 448h128v128h-128v-128zM320 256h128v128h-128v-128zM64 198.376v441.624h704v-128h64v249.624c0 38.876-31 70.376-69.312 70.376h-26.688v-32c0-35.25-28.688-64-64-64s-64 28.75-64 64v32h-384v-32c0-35.25-28.688-64-64-64s-64 28.75-64 64v32h-26.624c-38.376 0-69.376-31.5-69.376-70.376v-563.25c0-38.75 31-70.374 69.376-70.374h378.624v64h-378.624c-2.938 0-5.376 3-5.376 6.376zM640 448v128h-128v-128h128zM768 352h-32v-192h192v32c0 88.25-71.75 160-160 160z" />
</font>
</defs>
</svg>
