<?xml version="1.0" standalone="no"?>
<!DOCTYPE svg PUBLIC "-//W3C//DTD SVG 1.1//EN" "http://www.w3.org/Graphics/SVG/1.1/DTD/svg11.dtd" >
<svg xmlns="http://www.w3.org/2000/svg">
<metadata></metadata>
<defs>
<font id="eleganticonsregular" horiz-adv-x="2048" >
<font-face units-per-em="2048" ascent="1920" descent="-128" />
<missing-glyph horiz-adv-x="500" />
<glyph horiz-adv-x="0" />
<glyph unicode="&#xd;" horiz-adv-x="680" />
<glyph unicode="!" d="M658 1170q46 -46 90 2l276 272v-1252q0 -28 18 -46t46 -18t46 18t18 46v1252l276 -272q44 -48 90 -2t-2 90l-384 384q-8 12 -20 16q-24 8 -48 0q-12 -4 -20 -16l-384 -384q-48 -44 -2 -90z" />
<glyph unicode="&#x22;" d="M658 622q-46 -46 2 -90l384 -384q8 -12 20 -16q24 -8 48 0q12 4 20 16l384 384q48 44 2 90t-90 -2l-276 -272v1252q0 28 -18 46t-46 18t-46 -18t-18 -46v-1252l-276 272q-44 48 -90 2z" />
<glyph unicode="#" d="M256 960q0 -12 4 -24t16 -20l384 -384q44 -48 90 -2t-2 90l-272 276h1252q28 0 46 18t18 46t-18 46t-46 18h-1252l272 276q48 44 2 90t-90 -2l-384 -384q-12 -8 -16 -20t-4 -24z" />
<glyph unicode="$" d="M256 960q0 -28 18 -46t46 -18h1252l-272 -276q-48 -44 -2 -90t90 2l384 384q12 8 16 20t4 24t-4 24t-16 20l-384 384q-44 48 -90 2t2 -90l272 -276h-1252q-28 0 -46 -18t-18 -46z" />
<glyph unicode="%" d="M256 960q0 -28 18 -46t46 -18t46 18t18 46v484l1300 -1296q44 -48 88 0q20 16 20 44t-20 44l-1296 1300h484q28 0 46 18t18 46t-18 46t-46 18h-640q-12 0 -24 -4t-20 -16q-12 -8 -16 -20t-4 -24v-640z" />
<glyph unicode="&#x26;" d="M256 192q0 -28 20 -44q44 -48 88 0l1300 1296v-484q0 -28 18 -46t46 -18t46 18t18 46v640q0 12 -4 24q-12 24 -36 36q-12 4 -24 4h-640q-28 0 -46 -18t-18 -46t18 -46t46 -18h484l-1296 -1300q-20 -16 -20 -44z" />
<glyph unicode="'" d="M276 1556l1296 -1300h-484q-28 0 -46 -18t-18 -46t18 -46t46 -18h640q12 0 24 4q24 12 36 36q4 12 4 24v640q0 28 -18 46t-46 18t-46 -18t-18 -46v-484l-1300 1296q-16 20 -44 20t-44 -20q-48 -44 0 -88z" />
<glyph unicode="(" d="M256 192q0 -12 4 -24t16 -20q8 -12 20 -16t24 -4h640q28 0 46 18t18 46t-18 46t-46 18h-484l1296 1300q48 44 2 90t-90 -2l-1300 -1296v484q0 28 -18 46t-46 18t-46 -18t-18 -46v-640z" />
<glyph unicode=")" d="M786 238q-46 -46 2 -90l256 -256q8 -12 20 -16q24 -8 48 0q12 4 20 16l256 256q48 44 2 90t-90 -2l-148 -144v1608l148 -144q44 -48 90 -2t-2 90l-256 256q-8 12 -20 16q-24 8 -48 0q-12 -4 -20 -16l-256 -256q-48 -44 -2 -90t90 2l148 144v-1608l-148 144q-44 48 -90 2z " />
<glyph unicode="*" d="M540 1564q44 -44 92 0l136 136v-1124q0 -28 18 -46t46 -18t46 18t18 46v1124l148 -144q44 -48 90 -2t-2 90l-252 256q-20 20 -48 20t-44 -20l-248 -244q-44 -48 0 -92zM896 190q0 -26 20 -46l252 -252q20 -20 48 -20t44 20l248 244q44 44 0 90t-92 2l-136 -136v1124 q0 24 -18 44t-46 20t-46 -20t-18 -44v-1128l-148 148q-44 44 -88 0q-20 -20 -20 -46z" />
<glyph unicode="+" d="M0 704q0 -28 20 -44l244 -248q48 -44 92 0t0 92l-136 136h1124q28 0 46 18t18 46t-18 46t-46 18h-1124l144 148q48 44 2 90t-90 -2l-256 -256q-20 -16 -20 -44zM640 1086q0 -26 18 -44t46 -18h1124l-144 -148q-48 -44 -2 -90t90 -2l256 256q20 20 20 46t-20 46l-244 248 q-48 44 -92 -2t0 -90l136 -136h-1124q-28 0 -46 -20t-18 -46z" />
<glyph unicode="," d="M0 832q0 -12 4 -24t16 -20l256 -256q44 -48 90 -2t-2 90l-144 148h1608l-144 -148q-48 -44 -2 -90t90 2l256 256q12 8 16 20t4 24t-4 24t-16 20l-256 256q-44 48 -90 2t2 -90l144 -148h-1608l144 148q48 44 2 90t-90 -2l-256 -256q-12 -8 -16 -20t-4 -24z" />
<glyph unicode="-" d="M256 960q0 -28 18 -46t46 -18t46 18t18 46v484l1188 -1188h-484q-28 0 -46 -18t-18 -46t18 -46t46 -18h640q12 0 24 4q24 12 36 36q4 12 4 24v640q0 28 -18 46t-46 18t-46 -18t-18 -46v-484l-1188 1188h484q28 0 46 18t18 46t-18 46t-46 18h-640q-12 0 -24 -4t-20 -16 q-12 -8 -16 -20t-4 -24v-640z" />
<glyph unicode="." d="M256 192q0 -12 4 -24t16 -20q8 -12 20 -16t24 -4h640q28 0 46 18t18 46t-18 46t-46 18h-484l1188 1188v-484q0 -28 18 -46t46 -18t46 18t18 46v640q0 12 -4 24q-12 24 -36 36q-12 4 -24 4h-640q-28 0 -46 -18t-18 -46t18 -46t46 -18h484l-1188 -1188v484q0 28 -18 46 t-46 18t-46 -18t-18 -46v-640z" />
<glyph unicode="/" d="M146 18q46 -46 90 2l532 528v-356q0 -28 18 -46t46 -18t46 18t18 46v512q0 12 -4 24q-12 24 -36 36q-12 4 -24 4h-512q-28 0 -46 -18t-18 -46t18 -46t46 -18h356l-528 -532q-48 -44 -2 -90zM1152 1088q0 -12 4 -24t16 -20q8 -12 20 -16t24 -4h512q28 0 46 18t18 46 t-18 46t-46 18h-356l528 532q48 44 2 90t-90 -2l-532 -528v356q0 28 -18 46t-46 18t-46 -18t-18 -46v-512z" />
<glyph unicode="0" d="M128 64q0 -12 4 -24t16 -20q8 -12 20 -16t24 -4h512q28 0 46 18t18 46t-18 46t-46 18h-356l528 532q48 44 2 90t-90 -2l-532 -528v356q0 28 -18 46t-46 18t-46 -18t-18 -46v-512zM1170 1042q46 -46 90 2l532 528v-356q0 -28 18 -46t46 -18t46 18t18 46v512q0 12 -4 24 q-12 24 -36 36q-12 4 -24 4h-512q-28 0 -46 -18t-18 -46t18 -46t46 -18h356l-528 -532q-48 -44 -2 -90z" />
<glyph unicode="1" d="M128 832q0 -12 4 -24t16 -20l256 -256q44 -48 90 -2t-2 90l-144 148h676v-676l-148 144q-44 48 -88 0q-20 -16 -20 -44t20 -44l256 -256q8 -12 20 -16t24 -4t24 4t20 16l256 256q48 44 2 90t-90 -2l-148 -144v676h676l-144 -148q-48 -44 -2 -90t90 2l256 256q12 8 16 20 t4 24t-4 24t-16 20l-256 256q-44 48 -90 2t2 -90l144 -148h-676v676l148 -144q44 -48 90 -2t-2 90l-256 256q-8 12 -20 16t-24 4t-24 -4t-20 -16l-256 -256q-48 -44 -2 -90t90 2l148 144v-676h-676l144 148q48 44 2 90t-90 -2l-256 -256q-12 -8 -16 -20t-4 -24z" />
<glyph unicode="2" d="M628 626q44 -46 88 2l372 368l372 -368q44 -48 88 -2t0 90l-416 416q-16 20 -44 20t-44 -20l-416 -416q-44 -44 0 -90z" />
<glyph unicode="3" d="M628 948l416 -416q16 -20 44 -20t44 20l416 416q44 44 0 90t-88 -2l-372 -368l-372 368q-44 48 -88 2t0 -90z" />
<glyph unicode="4" d="M768 832q0 -28 20 -44l416 -416q44 -44 88 0q20 20 20 46t-20 42l-368 372l368 372q48 44 2 88t-90 0l-416 -416q-20 -16 -20 -44z" />
<glyph unicode="5" d="M882 372q46 -44 90 0l416 416q20 16 20 44t-20 44l-416 416q-44 44 -90 0t2 -88l368 -372l-368 -372q-48 -44 -2 -88z" />
<glyph unicode="6" d="M532 506q0 -26 20 -46q44 -44 92 0l384 340l380 -340q48 -44 94 0t-2 92l-428 380q-20 16 -44 16q-28 0 -48 -16l-428 -380q-20 -20 -20 -46zM552 918q44 -46 92 2l384 340l380 -340q48 -48 94 -2t-2 94l-428 376q-20 20 -44 20q-28 0 -48 -20l-428 -376q-44 -48 0 -94z " />
<glyph unicode="7" d="M546 874q-46 -46 2 -94l428 -376q20 -20 44 -20q28 0 48 20l428 376q44 48 0 94t-92 -2l-384 -340l-380 340q-48 48 -94 2zM546 1332q-46 -44 2 -92l428 -380q20 -16 44 -16q28 0 48 16l428 380q44 48 0 92t-92 0l-384 -340l-380 340q-48 44 -94 0z" />
<glyph unicode="8" d="M512 898q0 -26 20 -46l376 -428q48 -44 94 0t-2 92l-340 384l340 380q48 48 2 94t-94 -2l-376 -428q-20 -20 -20 -46zM972 898q0 -26 16 -46l380 -428q48 -44 92 0t0 92l-340 384l340 380q44 48 0 94t-92 -2l-380 -428q-16 -20 -16 -46z" />
<glyph unicode="9" d="M588 418q44 -46 92 2l380 428q16 20 16 44q0 28 -16 48l-380 428q-20 20 -46 20t-46 -20q-44 -44 0 -92l340 -384l-340 -380q-44 -48 0 -94zM1028 466q0 -26 20 -46q44 -48 92 0l376 428q20 20 20 46t-20 46l-376 428q-48 44 -94 0t2 -92l340 -384l-340 -380 q-20 -20 -20 -46z" />
<glyph unicode=":" d="M136 828q0 -396 280 -676t676 -280t676 280t280 676t-280 676t-676 280t-676 -280t-280 -676zM264 828q0 344 242 586t586 242t586 -242t242 -586t-242 -586t-586 -242t-586 242t-242 586zM628 626q44 -46 88 2l372 368l372 -368q44 -48 88 -2t0 90l-416 416 q-16 20 -44 20t-44 -20l-416 -416q-44 -44 0 -90z" />
<glyph unicode=";" d="M136 828q0 -396 280 -676t676 -280t676 280t280 676t-280 676t-676 280t-676 -280t-280 -676zM264 826q0 342 244 586t586 244t584 -244t242 -586t-242 -584t-584 -242t-586 242t-244 584zM628 948l416 -416q16 -20 44 -20t44 20l416 416q44 44 0 90t-88 -2l-372 -368 l-372 368q-44 48 -88 2t0 -90z" />
<glyph unicode="&#x3c;" d="M128 832q0 -396 282 -678t678 -282t678 282t282 678t-282 678t-678 282t-678 -282t-282 -678zM256 832q0 344 244 588t588 244t588 -244t244 -588t-244 -588t-588 -244t-588 244t-244 588zM768 832q0 -28 20 -44l416 -416q44 -44 88 0q20 20 20 46t-20 42l-368 372 l368 372q48 44 2 88t-90 0l-416 -416q-20 -16 -20 -44z" />
<glyph unicode="=" d="M136 828q0 -396 280 -676t676 -280t676 280t280 676t-280 676t-676 280t-676 -280t-280 -676zM264 826q0 342 244 586t586 244t584 -244t242 -586t-242 -584t-584 -242t-586 242t-244 584zM882 372q46 -44 90 0l416 416q20 16 20 44t-20 44l-416 416q-44 44 -90 0t2 -88 l368 -372l-368 -372q-48 -44 -2 -88z" />
<glyph unicode="&#x3e;" d="M136 828q0 -396 280 -676t676 -280t676 280t280 676t-280 676t-676 280t-676 -280t-280 -676zM264 826q0 342 244 586t586 244t584 -244t242 -586t-242 -584t-584 -242t-586 242t-244 584zM616 396q44 -44 92 0l384 340l380 -340q48 -44 94 0t-2 92l-428 380 q-20 16 -44 16q-28 0 -48 -16l-428 -380q-44 -48 0 -92zM616 854q44 -46 92 2l384 340l380 -340q48 -48 94 -2t-2 94l-428 376q-20 20 -44 20q-28 0 -48 -20l-428 -376q-44 -48 0 -94z" />
<glyph unicode="?" d="M136 828q0 -396 280 -676t676 -280t676 280t280 676t-280 676t-676 280t-676 -280t-280 -676zM264 826q0 342 244 586t586 244t584 -244t242 -586t-242 -584t-584 -242t-586 242t-244 584zM610 1268q-46 -44 2 -92l428 -380q20 -16 44 -16q28 0 48 16l428 380q44 48 0 92 t-92 0l-384 -340l-380 340q-48 44 -94 0zM612 716l428 -376q20 -20 44 -20q28 0 48 20l428 376q44 48 0 94t-92 -2l-384 -340l-380 340q-20 20 -46 20t-46 -20q-48 -44 0 -92z" />
<glyph unicode="@" d="M128 832q0 -396 282 -678t678 -282t678 282t282 678t-282 678t-678 282t-678 -282t-282 -678zM256 832q0 344 244 588t588 244t588 -244t244 -588t-244 -588t-588 -244t-588 244t-244 588zM576 834q0 -26 20 -46l376 -428q48 -44 94 0t-2 92l-340 384l340 380q48 48 2 94 t-94 -2l-376 -428q-20 -20 -20 -46zM1036 834q0 -26 16 -46l380 -428q48 -44 92 0t0 92l-340 384l340 380q44 48 0 94t-92 -2l-380 -428q-16 -20 -16 -46z" />
<glyph unicode="A" d="M128 832q0 -396 282 -678t678 -282t678 282t282 678t-282 678t-678 282t-678 -282t-282 -678zM256 832q0 344 244 588t588 244t588 -244t244 -588t-244 -588t-588 -244t-588 244t-244 588zM632 402q0 -26 20 -46q22 -24 45 -24t47 24l380 428q16 20 16 44q0 28 -16 48 l-380 428q-20 20 -46 20t-46 -20q-22 -22 -22 -45t22 -47l340 -384l-340 -380q-20 -20 -20 -46zM1110 354q23 -23 46 -23q24 0 48 25l376 428q20 20 20 46t-20 46l-376 428q-24 22 -47.5 22t-46.5 -22t-23 -44q0 -23 25 -48l340 -384l-340 -380q-25 -25 -25 -48t23 -46z" />
<glyph unicode="B" d="M528 664l4 -4q16 -20 44 -20h892q28 0 48 24q22 24 22 49t-22 51l-448 496q-20 20 -46 20t-46 -20v-4l-448 -492q-22 -26 -22 -51t22 -49z" />
<glyph unicode="C" d="M528 1156l448 -496q20 -20 46 -20t46 20v4l448 492q22 26 22 51t-22 49v4q-20 20 -48 20h-892q-28 0 -48 -24q-22 -24 -22 -49t22 -51z" />
<glyph unicode="D" d="M640 898q0 -26 20 -46h4l492 -448q26 -22 51 -22t49 22h4q20 20 20 48v892q0 28 -24 48q-24 22 -49 22t-51 -22l-496 -448q-20 -20 -20 -46z" />
<glyph unicode="E" d="M768 448q0 -28 24 -48h-4q26 -22 51 -22t49 22l492 452q20 16 20 44t-20 44l-2 2l-2 2l-488 448q-24 22 -49 22t-51 -22v-4q-20 -16 -20 -44v-896z" />
<glyph unicode="F" d="M128 832q0 -396 282 -678t678 -282t678 282t282 678t-282 678t-678 282t-678 -282t-282 -678zM256 832q0 344 244 588t588 244t588 -244t244 -588t-244 -588t-588 -244t-588 244t-244 588zM656 532q16 -20 40 -20h780q24 0 44 24q18 24 18 49t-18 51l-392 496 q-16 20 -40 20t-40 -20v-4l-392 -492q-20 -26 -20 -51t20 -49v-4z" />
<glyph unicode="G" d="M128 832q0 -396 282 -678t678 -282t678 282t282 678t-282 678t-678 282t-678 -282t-282 -678zM256 832q0 344 244 588t588 244t588 -244t244 -588t-244 -588t-588 -244t-588 244t-244 588zM656 900l392 -496q16 -20 40 -20t40 20v4l392 492q20 26 20 51t-20 49v4 q-16 20 -40 20h-784q-24 0 -40 -24q-20 -24 -20 -49t20 -51z" />
<glyph unicode="H" d="M128 832q0 -396 282 -678t678 -282t678 282t282 678t-282 678t-678 282t-678 -282t-282 -678zM256 832q0 344 244 588t588 244t588 -244t244 -588t-244 -588t-588 -244t-588 244t-244 588zM640 834q0 -22 20 -42h4l492 -392q26 -18 51 -18t49 18l4 4q20 16 20 40v780 q0 24 -24 40q-24 20 -49 20t-51 -20l-496 -392q-20 -16 -20 -38z" />
<glyph unicode="I" d="M128 832q0 -396 282 -678t678 -282t678 282t282 678t-282 678t-678 282t-678 -282t-282 -678zM256 832q0 344 244 588t588 244t588 -244t244 -588t-244 -588t-588 -244t-588 244t-244 588zM896 444q0 -24 24 -44q24 -18 49 -18t51 18l496 392q20 16 20 40t-20 40h-4 l-492 392q-26 20 -51 20t-49 -20h-4q-20 -16 -20 -40v-780z" />
<glyph unicode="J" d="M276 916l384 -384q22 -25 45 -25q22 0 45 23t23 45q0 23 -25 45l-272 276h932q180 0 282 -136t102 -312q0 -28 18 -46t46 -18t46 18t18 46q0 240 -124 408t-388 168h-932l272 276q25 22 25 45q0 22 -23 45t-45 23q-23 0 -45 -25l-384 -384q-24 -22 -24 -44t24 -44z" />
<glyph unicode="K" d="M512 832q0 -28 18 -46t46 -18h1024q28 0 46 18t18 46t-18 46t-46 18h-1024q-28 0 -46 -18t-18 -46z" />
<glyph unicode="L" d="M512 832q0 -28 18 -46t46 -18h448v-448q0 -28 18 -46t46 -18t46 18t18 46v448h448q28 0 46 18t18 46t-18 46t-46 18h-448v448q0 28 -18 46t-46 18t-46 -18t-18 -46v-448h-448q-28 0 -46 -18t-18 -46z" />
<glyph unicode="M" d="M642 386q23 -23 45 -23q23 0 45 25l356 352l356 -352q22 -25 45 -25q22 0 45 23t23 45q0 23 -25 45l-352 356l352 356q25 22 25 45q0 22 -23 45t-45 23q-23 0 -45 -25l-356 -352l-356 352q-22 25 -45 25q-22 0 -45 -23t-23 -45q0 -23 25 -45l352 -356l-352 -356 q-25 -22 -25 -45q0 -22 23 -45z" />
<glyph unicode="N" d="M382 802q2 -38 30 -62l468 -456l2 -2l4 -4l2 -2q4 0 8 -2l4 -2q12 -4 16 -8h16q6 -2 11 -2t9 2h8q16 4 28 12l4 4q12 8 14 10t4 6l2 4l764 1224q14 23 14 48q0 10 -2 20q-8 36 -38 56q-21 14 -46 14q-10 0 -20 -2q-36 -8 -56 -36l-708 -1132l-388 380q-28 24 -64 24 t-62 -28q-24 -26 -24 -61v-5z" />
<glyph unicode="O" d="M128 832q0 -396 282 -678t678 -282t678 282t282 678t-282 678t-678 282t-678 -282t-282 -678zM256 832q0 344 244 588t588 244t588 -244t244 -588t-244 -588t-588 -244t-588 244t-244 588zM512 832q0 -28 18 -46t46 -18h1024q28 0 46 18t18 46t-18 46t-46 18h-1024 q-28 0 -46 -18t-18 -46z" />
<glyph unicode="P" d="M128 832q0 -396 282 -678t678 -282t678 282t282 678t-282 678t-678 282t-678 -282t-282 -678zM256 832q0 344 244 588t588 244t588 -244t244 -588t-244 -588t-588 -244t-588 244t-244 588zM512 832q0 -28 18 -46t46 -18h448v-448q0 -28 18 -46t46 -18t46 18t18 46v448 h448q28 0 46 18t18 46t-18 46t-46 18h-448v448q0 28 -18 46t-46 18t-46 -18t-18 -46v-448h-448q-28 0 -46 -18t-18 -46z" />
<glyph unicode="Q" d="M128 832q0 -396 282 -678t678 -282t678 282t282 678t-282 678t-678 282t-678 -282t-282 -678zM256 832q0 344 244 588t588 244t588 -244t244 -588t-244 -588t-588 -244t-588 244t-244 588zM644 386q22 -23 43 -23l45 25l352 352l316 -352q25 -25 48 -25q22 0 44 23 t22 45.5t-22 44.5l-316 352l356 360q25 22 25 45q0 22 -23 45t-45 23q-23 0 -45 -25l-352 -352l-316 352q-25 25 -48 25q-22 0 -44 -23t-22 -45.5t22 -44.5l316 -352l-356 -360q-22 -22 -22 -44.5t22 -45.5z" />
<glyph unicode="R" d="M4 896q0 -424 300 -724t724 -300t724 300t300 724t-300 724t-724 300t-724 -300t-300 -724zM132 896q0 372 264 634t634 262t632 -262t262 -634t-262 -634t-632 -262t-634 262t-264 634zM566 738q2 -38 26 -62l288 -264l2 -2l4 -4l2 -2q4 0 8 -2l4 -2q12 -4 16 -8h16 q6 -2 11 -2t9 2h8q16 4 28 12l4 4q12 8 14 10t4 6l2 4l492 752q14 23 14 48q0 10 -2 20q-8 36 -38 56q-21 14 -46 14q-10 0 -20 -2q-36 -8 -60 -40l-432 -660l-204 192q-28 24 -66 24t-62 -28q-22 -26 -22 -60v-6z" />
<glyph unicode="S" d="M0 -40q0 -36 26 -62t62 -26t64 28l544 540q228 -184 520 -184q344 0 588 244t244 588t-244 588t-588 244t-588 -244t-244 -588q0 -292 184 -520l-540 -544q-28 -28 -28 -64zM512 1088q0 292 206 498t498 206t498 -206t206 -498t-206 -498t-498 -206t-498 206t-206 498z M768 1088q0 -28 18 -46t46 -18h768q28 0 46 18t18 46t-18 46t-46 18h-768q-28 0 -46 -18t-18 -46z" />
<glyph unicode="T" d="M0 -40q0 -36 26 -62t62 -26t64 28l544 540q228 -184 520 -184q344 0 588 244t244 588t-244 588t-588 244t-588 -244t-244 -588q0 -292 184 -520l-540 -544q-28 -28 -28 -64zM512 1088q0 292 206 498t498 206t498 -206t206 -498t-206 -498t-498 -206t-498 206t-206 498z M768 1088q0 -28 18 -46t46 -18h320v-320q0 -28 18 -46t46 -18t46 18t18 46v320h320q28 0 46 18t18 46t-18 46t-46 18h-320v320q0 28 -18 46t-46 18t-46 -18t-18 -46v-320h-320q-28 0 -46 -18t-18 -46z" />
<glyph unicode="U" d="M-8 -46q0 -38 26 -64t64 -26t62 28l548 548q232 -184 524 -184q344 0 588 244t244 588t-244 588t-588 244t-588 -244t-244 -588q0 -292 184 -524l-548 -548q-28 -24 -28 -62zM512 1088q0 292 206 498t498 206t498 -206t206 -498t-206 -498t-498 -206t-498 206t-206 498z " />
<glyph unicode="V" d="M256 256q0 -52 38 -90t90 -38h1280q52 0 90 38t38 90v1280q0 52 -38 90t-90 38h-1280q-52 0 -90 -38t-38 -90v-1280zM384 256v1280h1280v-1280h-1280z" />
<glyph unicode="W" d="M256 256q0 -52 38 -90t90 -38h1280q52 0 90 38t38 90v1280q0 52 -38 90t-90 38h-1280q-52 0 -90 -38t-38 -90v-1280zM384 256v1280h1280v-1280h-1280zM640 640q0 -52 38 -90t90 -38h512q52 0 90 38t38 90v512q0 52 -38 90t-90 38h-512q-52 0 -90 -38t-38 -90v-512z" />
<glyph unicode="X" d="M512 384q0 -52 38 -90t90 -38h896q52 0 90 38t38 90v896q0 52 -38 90t-90 38h-896q-52 0 -90 -38t-38 -90v-896zM640 384v896h896v-896h-896zM768 832q0 -28 18 -46t46 -18h512q28 0 46 18t18 46t-18 46t-46 18h-512q-28 0 -46 -18t-18 -46z" />
<glyph unicode="Y" d="M512 384q0 -52 38 -90t90 -38h896q52 0 90 38t38 90v896q0 52 -38 90t-90 38h-896q-52 0 -90 -38t-38 -90v-896zM640 384v896h896v-896h-896zM768 832q0 -28 18 -46t46 -18h192v-192q0 -28 18 -46t46 -18t46 18t18 46v192h192q28 0 46 18t18 46t-18 46t-46 18h-192v192 q0 28 -18 46t-46 18t-46 -18t-18 -46v-192h-192q-28 0 -46 -18t-18 -46z" />
<glyph unicode="Z" d="M256 256q0 -52 38 -90t90 -38h1280q52 0 90 38t38 90v844l-128 -204v-640h-1280v1280h944l80 128h-1024q-52 0 -90 -38t-38 -90v-1280zM640 986q0 -38 28 -62l324 -368q0 -4 4 -8l4 -4l8 -8h2t2 -2t2 -4t6 -2q4 -4 16 -8l4 -4q16 -4 28 -4q40 0 68 28q0 4 2 8t6 4 l760 1100q15 25 15 52q0 8 -1 16q-6 36 -38 56q-24 16 -48 16q-48 0 -76 -40l-696 -1004l-268 308q-26 22 -60 22h-6q-38 -2 -62 -28t-24 -64z" />
<glyph unicode="[" d="M256 896q0 -320 224 -544t544 -224t544 224t224 544t-224 544t-544 224t-544 -224t-224 -544zM384 896q0 264 188 452t452 188t452 -188t188 -452t-188 -452t-452 -188t-452 188t-188 452z" />
<glyph unicode="\" d="M256 896q0 -320 224 -544t544 -224t544 224t224 544t-224 544t-544 224t-544 -224t-224 -544zM384 896q0 264 188 452t452 188t452 -188t188 -452t-188 -452t-452 -188t-452 188t-188 452zM640 896q0 -160 112 -272t272 -112t272 112t112 272t-112 272t-272 112 t-272 -112t-112 -272z" />
<glyph unicode="]" d="M0 896q0 -424 300 -724t724 -300t724 300t300 724t-300 724t-724 300t-724 -300t-300 -724zM128 896q0 372 262 634t634 262t634 -262t262 -634t-262 -634t-634 -262t-634 262t-262 634zM640 640q0 -52 38 -90t90 -38h512q52 0 90 38t38 90v512q0 52 -38 90t-90 38h-512 q-52 0 -90 -38t-38 -90v-512z" />
<glyph unicode="^" d="M640 640q0 -52 38 -90t90 -38h512q52 0 90 38t38 90v512q0 52 -38 90t-90 38h-512q-52 0 -90 -38t-38 -90v-512z" />
<glyph unicode="_" d="M0 896q0 -424 300 -724t724 -300t724 300t300 724t-300 724t-724 300t-724 -300t-300 -724zM128 896q0 372 262 634t634 262t634 -262t262 -634t-262 -634t-634 -262t-634 262t-262 634zM640 640q0 -52 38 -90t90 -38t90 38t38 90v512q0 52 -38 90t-90 38t-90 -38 t-38 -90v-512zM1152 640q0 -52 38 -90t90 -38t90 38t38 90v512q0 52 -38 90t-90 38t-90 -38t-38 -90v-512z" />
<glyph unicode="`" d="M640 640q0 -52 38 -90t90 -38t90 38t38 90v512q0 52 -38 90t-90 38t-90 -38t-38 -90v-512zM1152 640q0 -52 38 -90t90 -38t90 38t38 90v512q0 52 -38 90t-90 38t-90 -38t-38 -90v-512z" />
<glyph unicode="a" d="M384 576q0 -28 18 -46t46 -18h1152q28 0 46 18t18 46t-18 46t-46 18h-1152q-28 0 -46 -18t-18 -46zM384 960q0 -28 18 -46t46 -18h1152q28 0 46 18t18 46t-18 46t-46 18h-1152q-28 0 -46 -18t-18 -46zM384 1344q0 -28 18 -46t46 -18h1152q28 0 46 18t18 46t-18 46t-46 18 h-1152q-28 0 -46 -18t-18 -46z" />
<glyph unicode="b" d="M128 0q0 -52 38 -90t90 -38h1664q52 0 90 38t38 90v1664q0 52 -38 90t-90 38h-1664q-52 0 -90 -38t-38 -90v-1664zM256 0v1664h1664v-1664h-1664zM512 448q0 -28 18 -46t46 -18h1024q28 0 46 18t18 46t-18 46t-46 18h-1024q-28 0 -46 -18t-18 -46zM512 832q0 -28 18 -46 t46 -18h1024q28 0 46 18t18 46t-18 46t-46 18h-1024q-28 0 -46 -18t-18 -46zM512 1216q0 -28 18 -46t46 -18h1024q28 0 46 18t18 46t-18 46t-46 18h-1024q-28 0 -46 -18t-18 -46z" />
<glyph unicode="c" d="M128 832q0 -396 282 -678t678 -282t678 282t282 678t-282 678t-678 282t-678 -282t-282 -678zM256 832q0 344 244 588t588 244t588 -244t244 -588t-244 -588t-588 -244t-588 244t-244 588zM512 448q0 -28 18 -46t46 -18h1024q28 0 46 18t18 46t-18 46t-46 18h-1024 q-28 0 -46 -18t-18 -46zM512 832q0 -28 18 -46t46 -18h1024q28 0 46 18t18 46t-18 46t-46 18h-1024q-28 0 -46 -18t-18 -46zM512 1216q0 -28 18 -46t46 -18h1024q28 0 46 18t18 46t-18 46t-46 18h-1024q-28 0 -46 -18t-18 -46z" />
<glyph unicode="d" d="M256 448q0 -28 18 -46t46 -18t46 18t18 46t-18 46t-46 18t-46 -18t-18 -46zM256 960q0 -28 18 -46t46 -18t46 18t18 46t-18 46t-46 18t-46 -18t-18 -46zM256 1472q0 -28 18 -46t46 -18t46 18t18 46t-18 46t-46 18t-46 -18t-18 -46zM640 448q0 -28 18 -46t46 -18h1024 q28 0 46 18t18 46t-18 46t-46 18h-1024q-28 0 -46 -18t-18 -46zM640 960q0 -28 18 -46t46 -18h1024q28 0 46 18t18 46t-18 46t-46 18h-1024q-28 0 -46 -18t-18 -46zM640 1472q0 -28 18 -46t46 -18h1024q28 0 46 18t18 46t-18 46t-46 18h-1024q-28 0 -46 -18t-18 -46z" />
<glyph unicode="e" d="M312 804h200v32h-140v4l24 20q108 108 108 172q0 36 -24 64t-72 28q-52 0 -88 -32l12 -32q32 28 68 28q60 0 60 -64q0 -52 -116 -164l-32 -32v-24zM316 312q32 -20 80 -20q56 0 86 26t30 66q0 68 -72 80v4q60 20 60 72q0 32 -24 54t-68 22q-48 0 -80 -24l12 -32 q28 20 60 20q56 0 56 -44q0 -56 -68 -56h-24v-32h24q80 0 80 -64q0 -20 -18 -40t-54 -20q-40 0 -68 20zM340 1592l8 -32l56 32v-276h40v312h-36zM640 448q0 -28 18 -46t46 -18h1024q28 0 46 18t18 46t-18 46t-46 18h-1024q-28 0 -46 -18t-18 -46zM640 960q0 -28 18 -46 t46 -18h1024q28 0 46 18t18 46t-18 46t-46 18h-1024q-28 0 -46 -18t-18 -46zM640 1472q0 -28 18 -46t46 -18h1024q28 0 46 18t18 46t-18 46t-46 18h-1024q-28 0 -46 -18t-18 -46z" />
<glyph unicode="f" d="M256 448q0 -28 18 -46t46 -18h576q0 -52 38 -90t90 -38h128q52 0 90 38t38 90h448q28 0 46 18t18 46t-18 46t-46 18h-448q0 52 -38 90t-90 38h-128q-52 0 -90 -38t-38 -90h-576q-28 0 -46 -18t-18 -46zM256 960q0 -28 18 -46t46 -18h192q0 -52 38 -90t90 -38h128 q52 0 90 38t38 90h832q28 0 46 18t18 46t-18 46t-46 18h-832q0 52 -38 90t-90 38h-128q-52 0 -90 -38t-38 -90h-192q-28 0 -46 -18t-18 -46zM256 1472q0 -28 18 -46t46 -18h832q0 -52 38 -90t90 -38h128q52 0 90 38t38 90h192q28 0 46 18t18 46t-18 46t-46 18h-192 q0 52 -38 90t-90 38h-128q-52 0 -90 -38t-38 -90h-832q-28 0 -46 -18t-18 -46zM640 896v128h128v-128h-128zM1024 384v128h128v-128h-128zM1280 1408v128h128v-128h-128z" />
<glyph unicode="g" d="M384 1152q0 -52 38 -90t90 -38v-832q0 -28 18 -46t46 -18t46 18t18 46v832q52 0 90 38t38 90v128q0 52 -38 90t-90 38v192q0 28 -18 46t-46 18t-46 -18t-18 -46v-192q-52 0 -90 -38t-38 -90v-128zM512 1152v128h128v-128h-128zM896 512q0 -52 38 -90t90 -38v-192 q0 -28 18 -46t46 -18t46 18t18 46v192q52 0 90 38t38 90v128q0 52 -38 90t-90 38v832q0 28 -18 46t-46 18t-46 -18t-18 -46v-832q-52 0 -90 -38t-38 -90v-128zM1024 512v128h128v-128h-128zM1408 896q0 -52 38 -90t90 -38v-576q0 -28 18 -46t46 -18t46 18t18 46v576 q52 0 90 38t38 90v128q0 52 -38 90t-90 38v448q0 28 -18 46t-46 18t-46 -18t-18 -46v-448q-52 0 -90 -38t-38 -90v-128zM1536 896v128h128v-128h-128z" />
<glyph unicode="h" d="M128 0q0 -52 38 -90t90 -38h1536q52 0 90 38t38 90v1792q0 52 -38 90t-90 38h-1536q-52 0 -90 -38t-38 -90v-1792zM256 0v1792h1536v-1792h-1536zM512 320q0 -28 18 -46t46 -18h896q28 0 46 18t18 46t-18 46t-46 18h-896q-28 0 -46 -18t-18 -46zM512 704q0 -28 18 -46 t46 -18h896q28 0 46 18t18 46t-18 46t-46 18h-896q-28 0 -46 -18t-18 -46zM512 1088q0 -28 18 -46t46 -18h896q28 0 46 18t18 46t-18 46t-46 18h-896q-28 0 -46 -18t-18 -46zM896 1472q0 -28 18 -46t46 -18h512q28 0 46 18t18 46t-18 46t-46 18h-512q-28 0 -46 -18t-18 -46z " />
<glyph unicode="i" d="M128 256q0 -52 38 -90t90 -38h128v-128q0 -52 38 -90t90 -38h1280q52 0 90 38t38 90v1536q0 52 -38 90t-90 38h-128v128q0 52 -38 90t-90 38h-1280q-52 0 -90 -38t-38 -90v-1536zM256 256v1536h1280v-1536h-1280zM384 576q0 -28 18 -46t46 -18h896q28 0 46 18t18 46 t-18 46t-46 18h-896q-28 0 -46 -18t-18 -46zM384 832q0 -28 18 -46t46 -18h896q28 0 46 18t18 46t-18 46t-46 18h-896q-28 0 -46 -18t-18 -46zM384 1088q0 -28 18 -46t46 -18h896q28 0 46 18t18 46t-18 46t-46 18h-896q-28 0 -46 -18t-18 -46zM512 0v128h1024q52 0 90 38 t38 90v1280h128v-1536h-1280zM640 1472q0 -28 18 -46t46 -18h640q28 0 46 18t18 46t-18 46t-46 18h-640q-28 0 -46 -18t-18 -46z" />
<glyph unicode="j" d="M64 1664q0 -80 56 -136l136 -136l272 272l-136 136q-56 56 -136 56t-136 -56t-56 -136zM436 1212l1084 -1084l408 -136l-136 408l-1084 1084l-68 -68z" />
<glyph unicode="k" d="M0 0q0 -52 38 -90t90 -38h1792q52 0 90 38t38 90v1792q0 52 -38 90t-90 38h-1792q-52 0 -90 -38t-38 -90v-1792zM128 0v1792h1792v-1792h-1792zM308 1448q0 -68 48 -116l172 -168l228 228l-168 172q-48 48 -116 48t-116 -48t-48 -116zM660 1028l660 -656l344 -116 l-116 344l-656 660z" />
<glyph unicode="l" d="M0 1756q0 -68 48 -116l168 -168l232 232l-168 168q-48 48 -116 48t-116 -48t-48 -116zM352 1336l660 -656l344 -116l-116 344l-656 660zM384 0q0 -52 38 -90t90 -38h1408q52 0 90 38t38 90v1408q0 52 -38 90t-90 38h-908l128 -128h780v-1408h-1408v780l-128 128v-908z " />
<glyph unicode="m" d="M0 0q0 -52 38 -90t90 -38h1792q52 0 90 38t38 90v1024v132v252q0 52 -38 90t-90 38h-580q-136 0 -188 -128q-16 -116 -128 -128h-896q-52 0 -90 -36t-38 -88v-1156zM128 0v1152h896h12q164 16 228 184q16 36 38 54t38 18h16h564v-252v-132v-1024h-1792z" />
<glyph unicode="n" d="M0 0q0 -52 38 -90t90 -38h1792q52 0 90 38t38 90v1024h-2048v-1024zM0 1152h2048v132v252q0 52 -38 90t-90 38h-640q-52 0 -90 -38t-38 -90q-16 -116 -128 -128h-896q-52 0 -90 -36t-38 -88v-132zM128 0v896h1792v-896h-1792z" />
<glyph unicode="o" d="M128 0q0 -52 38 -90t90 -38h1664q52 0 90 38t38 90v1024v132v252q0 52 -38 90t-90 38h-452q-136 0 -188 -128q-16 -116 -128 -128h-896q-52 0 -90 -36t-38 -88v-1156zM256 0v1152h896h12q164 16 228 184q16 36 38 54t38 18h16h436v-252v-132v-1024h-1664zM704 576 q0 -28 18 -46t46 -18h256v-256q0 -28 18 -46t46 -18t46 18t18 46v256h256q28 0 46 18t18 46t-18 46t-46 18h-256v256q0 28 -18 46t-46 18t-46 -18t-18 -46v-256h-256q-28 0 -46 -18t-18 -46z" />
<glyph unicode="p" d="M0 896q0 -424 300 -724t724 -300t724 300t300 724t-300 724t-724 300t-724 -300t-300 -724zM128 896q0 372 262 634t634 262t634 -262t262 -634t-262 -634t-634 -262t-634 262t-262 634zM896 384q0 -52 38 -90t90 -38t90 38t38 90v640q0 52 -38 90t-90 38t-90 -38 t-38 -90v-640zM896 1406q0 -54 38 -92t90 -38t90 38t38 92t-38 90t-90 36t-90 -36t-38 -90z" />
<glyph unicode="q" d="M0 524q0 -52 36 -88l528 -528q36 -36 88 -36h744q52 0 88 36l528 528q36 36 36 88v744q0 52 -36 88l-528 528q-36 36 -88 36h-744q-52 0 -88 -36l-528 -528q-36 -36 -36 -88v-744zM128 524v744l524 524h744l524 -524v-744l-524 -524h-744zM896 384q0 -52 38 -90t90 -38 t90 38t38 90t-38 90t-90 38t-90 -38t-38 -90zM896 768q0 -52 38 -90t90 -38t90 38t38 90v640q0 52 -38 90t-90 38t-90 -38t-38 -90v-640z" />
<glyph unicode="r" d="M0 896q0 -424 300 -724t724 -300t724 300t300 724t-300 724t-724 300t-724 -300t-300 -724zM128 896q0 372 262 634t634 262t634 -262t262 -634t-262 -634t-634 -262t-634 262t-262 634zM896 386q0 -54 38 -90t90 -36t90 36t38 90t-38 92t-90 38t-90 -38t-38 -92z M896 768q0 -52 38 -90t90 -38t90 38t38 90v640q0 52 -38 90t-90 38t-90 -38t-38 -90v-640z" />
<glyph unicode="s" d="M20 60q-18 -31 -18 -62q0 -32 20 -64q38 -62 110 -62h1780q72 0 110 62q20 32 20 64q0 31 -18 62l-888 1664q-36 68 -112 68t-112 -68zM132 0l892 1664l888 -1664h-1780zM896 256q0 -52 38 -90t90 -38t90 38t38 90t-38 90t-90 38t-90 -38t-38 -90zM896 636q0 -52 38 -90 t90 -38t90 38t38 90v384q0 56 -38 92t-90 36t-90 -36t-38 -92v-384z" />
<glyph unicode="t" d="M0 896q0 -424 300 -724t724 -300t724 300t300 724t-300 724t-724 300t-724 -300t-300 -724zM128 896q0 372 262 634t634 262t634 -262t262 -634t-262 -634t-634 -262t-634 262t-262 634zM500 1148q0 -52 38 -90t92 -38t90 38t36 90q0 124 78 192t178 68q256 0 256 -216 q0 -136 -144 -216q-88 -48 -164 -138t-76 -198q0 -52 38 -90t92 -38t90 38t36 90q0 20 34 56t70 56q280 152 280 440q0 228 -150 350t-362 122q-200 0 -356 -138t-156 -378zM880 254q0 -54 40 -92t94 -38t92 38t38 94q0 52 -38 92t-92 40t-94 -40t-40 -94z" />
<glyph unicode="u" d="M500 1148q0 -52 38 -90t92 -38t90 38t36 90q0 124 78 192t178 68q256 0 256 -216q0 -136 -144 -216q-88 -48 -164 -138t-76 -198q0 -52 38 -90t92 -38t90 38t36 90q0 20 34 56t70 56q280 152 280 440q0 228 -150 350t-362 122q-200 0 -356 -138t-156 -378zM880 254 q0 -54 40 -92t94 -38t92 38t38 94q0 52 -38 92t-92 40t-94 -40t-40 -94z" />
<glyph unicode="v" d="M8 956q0 -340 288 -584q-64 -140 -164 -264q-17 -19 -17 -40q0 -13 7 -28q18 -36 58 -36q264 0 516 148q192 -32 328 -32q420 0 718 246t298 590t-298 588t-718 244t-718 -244t-298 -588zM136 956q0 292 260 498t628 206t628 -206t260 -498t-260 -500t-628 -208 q-164 0 -328 32q-24 4 -48 -8q-172 -104 -332 -132q72 112 116 232q7 15 7 28q0 26 -27 44q-276 212 -276 512z" />
<glyph unicode="w" d="M4 1072q0 -284 220 -492q-48 -116 -124 -220q-13 -17 -13 -36q0 -16 9 -32q16 -32 56 -32q140 4 348 136q220 -36 304 -36q340 0 572 206t232 506q0 296 -236 506t-568 210t-566 -210t-234 -506zM132 1072q0 244 198 416t476 172t476 -172t198 -416q0 -248 -192 -416 t-480 -168q-116 0 -308 40q-28 4 -48 -8q-76 -52 -152 -84q36 68 60 140q5 15 5 28q0 26 -21 44q-212 176 -212 424zM992 176q156 -60 324 -60q160 0 308 56q148 -52 352 -52q-72 88 -120 188q192 172 192 404q0 276 -260 452q16 -80 16 -156q0 -308 -232 -542t-580 -290z " />
<glyph unicode="x" d="M0 496q0 -52 38 -90t90 -38h292q12 -12 152 -130t272 -230t136 -112q36 -24 72 -24h8q72 8 92 88v1872q-20 80 -92 88h-8q-36 0 -72 -24q-536 -464 -560 -488h-292q-52 0 -90 -38t-38 -90v-16v-752v-16zM128 496v16v752v16h292q52 0 92 36q28 32 512 452v-1744 q-480 404 -512 436q-36 36 -92 36h-292zM1340 620q0 -32 22 -56t54 -24t56 24l220 220l224 -220q20 -24 54 -24t56 24t22 56t-24 56l-220 220l220 220q24 24 24 56t-22 56t-56 24t-54 -24l-224 -220l-220 220q-24 24 -56 24t-54 -24t-22 -56t24 -56l220 -220l-220 -220 q-24 -24 -24 -56z" />
<glyph unicode="y" d="M256 496q0 -52 38 -90t90 -38h292q12 -12 152 -130t274 -230l134 -112q36 -24 72 -24h8q72 8 92 88v1872q-20 80 -92 88h-8q-36 0 -72 -24q-536 -464 -560 -488h-292q-52 0 -90 -38t-38 -90v-16v-752v-16zM384 496v16v752v16h292q52 0 92 36q28 32 512 452v-1744 q-480 404 -512 436q-36 36 -92 36h-292zM1572 636q-3 -10 -3 -19q0 -15 7 -29q20 -36 56 -36q16 0 32 4q96 52 152 142t56 198t-56 198t-152 142q-13 7 -27 7q-11 0 -23 -5q-26 -10 -38 -34q-7 -14 -7 -29q0 -9 3 -19q8 -24 32 -36q140 -72 140 -224t-140 -224 q-24 -12 -32 -36z" />
<glyph unicode="z" d="M0 496q0 -52 38 -90t90 -38h292q12 -12 152 -130t272 -230t136 -112q36 -24 72 -24h8q72 8 92 88v1872q-20 80 -92 88h-8q-36 0 -72 -24q-536 -464 -560 -488h-292q-52 0 -90 -38t-38 -90v-16v-752v-16zM128 496v16v752v16h292q52 0 92 36q28 32 512 452v-1744 q-480 404 -512 436q-36 36 -92 36h-292zM1260 160q12 -52 64 -52q4 0 12 4q280 52 464 274t184 510t-184 510t-464 274q-8 3 -16 3q-16 0 -30 -11q-22 -16 -28 -42t8 -48t42 -26q236 -48 390 -234t154 -426t-154 -426t-390 -234q-28 -4 -42 -26q-11 -17 -11 -38q0 -6 1 -12z M1316 636q-3 -10 -3 -19q0 -14 7 -29q20 -36 56 -36q16 0 32 4q96 52 152 142t56 198t-56 198t-152 142q-13 7 -27 7q-11 0 -23 -5q-26 -10 -38 -34q-7 -14 -7 -29q0 -10 3 -19q8 -24 32 -36q140 -72 140 -224t-140 -224q-24 -12 -32 -36z" />
<glyph unicode="{" d="M512 1080q0 -80 56 -138t132 -58q48 0 92 28q-20 -224 -256 -416q-48 -40 -12 -88q20 -28 52 -28q20 0 36 16q288 232 304 520q16 200 -84 300q-12 12 -12 16q-16 12 -28 20h-4l-24 12l4 -4q-36 16 -68 16q-76 0 -132 -58t-56 -138zM1132 1080q0 -80 56 -138t132 -58 q48 0 92 28q-20 -224 -256 -416q-48 -40 -8 -88q16 -28 48 -28q20 0 36 16q288 232 304 520q16 200 -84 300q-12 12 -12 16q-12 12 -28 20h-4q-12 8 -24 12l4 -4q-36 16 -68 16q-76 0 -132 -58t-56 -138z" />
<glyph unicode="|" d="M0 896q0 -424 300 -724t724 -300t724 300t300 724t-300 724t-724 300t-724 -300t-300 -724zM128 896q0 372 262 634t634 262t634 -262t262 -634t-262 -634t-634 -262t-634 262t-262 634zM512 1080q0 -80 56 -138t132 -58q48 0 92 28q-20 -224 -256 -416q-48 -40 -12 -88 q20 -28 52 -28q20 0 36 16q288 232 304 520q16 200 -84 300q-12 12 -12 16q-16 12 -28 20h-4l-24 12l4 -4q-36 16 -68 16q-76 0 -132 -58t-56 -138zM1132 1080q0 -80 56 -138t132 -58q48 0 92 28q-20 -224 -256 -416q-48 -40 -8 -88q16 -28 48 -28q20 0 36 16 q288 232 304 520q16 200 -84 300q-8 12 -12 16q-12 12 -28 20h-4q-12 8 -20 12v-4q-36 16 -68 16q-76 0 -132 -58t-56 -138z" />
<glyph unicode="}" d="M136 828q0 -396 280 -676t676 -280t676 280t280 676t-280 676t-676 280t-676 -280t-280 -676zM264 828q0 344 242 586t586 242t586 -242t242 -586t-242 -586t-586 -242t-586 242t-242 586zM1024 832q0 -28 18 -46t46 -18h384q28 0 46 18t18 46t-18 46t-46 18h-320v448 q0 28 -18 46t-46 18t-46 -18t-18 -46v-512z" />
<glyph unicode="~" d="M128 0q0 -52 38 -90t90 -38h1536q52 0 90 38t38 90v1024q0 52 -38 90t-90 38h-128v120q0 268 -188 458t-452 190t-452 -190t-188 -458v-120h-128q-52 0 -90 -38t-38 -90v-1024zM256 0v1024h1536v-1024h-1536zM512 1152v120q0 212 150 366t362 154t362 -154t150 -366v-120 h-1024zM768 512q0 -108 74 -182t182 -74t182 74t74 182t-74 182t-182 74t-182 -74t-74 -182zM896 512q0 52 38 90t90 38t90 -38t38 -90t-38 -90t-90 -38t-90 38t-38 90z" />
<glyph unicode="&#xad;" d="M256 960q0 -28 18 -46t46 -18t46 18t18 46v484l1188 -1188h-484q-28 0 -46 -18t-18 -46t18 -46t46 -18h640q12 0 24 4q24 12 36 36q4 12 4 24v640q0 28 -18 46t-46 18t-46 -18t-18 -46v-484l-1188 1188h484q28 0 46 18t18 46t-18 46t-46 18h-640q-12 0 -24 -4t-20 -16 q-12 -8 -16 -20t-4 -24v-640z" />
<glyph unicode="&#x2000;" horiz-adv-x="960" />
<glyph unicode="&#x2001;" horiz-adv-x="1920" />
<glyph unicode="&#x2002;" horiz-adv-x="960" />
<glyph unicode="&#x2003;" horiz-adv-x="1920" />
<glyph unicode="&#x2004;" horiz-adv-x="640" />
<glyph unicode="&#x2005;" horiz-adv-x="480" />
<glyph unicode="&#x2006;" horiz-adv-x="320" />
<glyph unicode="&#x2007;" horiz-adv-x="320" />
<glyph unicode="&#x2008;" horiz-adv-x="240" />
<glyph unicode="&#x2009;" horiz-adv-x="384" />
<glyph unicode="&#x200a;" horiz-adv-x="106" />
<glyph unicode="&#x2010;" d="M256 960q0 -28 18 -46t46 -18t46 18t18 46v484l1188 -1188h-484q-28 0 -46 -18t-18 -46t18 -46t46 -18h640q12 0 24 4q24 12 36 36q4 12 4 24v640q0 28 -18 46t-46 18t-46 -18t-18 -46v-484l-1188 1188h484q28 0 46 18t18 46t-18 46t-46 18h-640q-12 0 -24 -4t-20 -16 q-12 -8 -16 -20t-4 -24v-640z" />
<glyph unicode="&#x2011;" d="M256 960q0 -28 18 -46t46 -18t46 18t18 46v484l1188 -1188h-484q-28 0 -46 -18t-18 -46t18 -46t46 -18h640q12 0 24 4q24 12 36 36q4 12 4 24v640q0 28 -18 46t-46 18t-46 -18t-18 -46v-484l-1188 1188h484q28 0 46 18t18 46t-18 46t-46 18h-640q-12 0 -24 -4t-20 -16 q-12 -8 -16 -20t-4 -24v-640z" />
<glyph unicode="&#x2012;" d="M256 960q0 -28 18 -46t46 -18t46 18t18 46v484l1188 -1188h-484q-28 0 -46 -18t-18 -46t18 -46t46 -18h640q12 0 24 4q24 12 36 36q4 12 4 24v640q0 28 -18 46t-46 18t-46 -18t-18 -46v-484l-1188 1188h484q28 0 46 18t18 46t-18 46t-46 18h-640q-12 0 -24 -4t-20 -16 q-12 -8 -16 -20t-4 -24v-640z" />
<glyph unicode="&#x2013;" horiz-adv-x="1536" d="M256 960q0 -28 12 -46t30.5 -18t30.5 18t12 46v484l792 -1188h-322q-19 0 -31 -18t-12 -46t12 -46t31 -18h426q8 0 16 4q16 12 24 36q3 12 3 24v640q0 28 -12 46t-30.5 18t-30.5 -18t-12 -46v-484l-792 1188h322q19 0 31 18t12 46t-12 46t-31 18h-426q-8 0 -16 -4 t-14 -16q-8 -8 -10.5 -20t-2.5 -24v-640z" />
<glyph unicode="&#x2014;" horiz-adv-x="2560" d="M256 960q0 -28 24 -46t61.5 -18t61.5 18t24 46v484l1584 -1188h-646q-37 0 -61 -18t-24 -46t24 -46t61 -18h854q16 0 32 4q32 12 48 36q5 12 5 24v640q0 28 -24 46t-61.5 18t-61.5 -18t-24 -46v-484l-1584 1188h646q37 0 61 18t24 46t-24 46t-61 18h-854q-16 0 -32 -4 t-26 -16q-16 -8 -21.5 -20t-5.5 -24v-640z" />
<glyph unicode="&#x202f;" horiz-adv-x="384" />
<glyph unicode="&#x205f;" horiz-adv-x="480" />
<glyph unicode="&#x25fc;" horiz-adv-x="1920" d="M0 0v1920h1920v-1920h-1920z" />
</font>
</defs>
</svg>
